  0
SECTION
  2
HEADER
  9
$ACADVER
  1
AC1009
  9
$INSBASE
 10
0.0
 20
0.0
 30
0.0
  9
$EXTMIN
 10
438.30339367154392
 20
103.803493283462
 30
0.0
  9
$EXTMAX
 10
530.15509344864097
 20
251.18651580175219
 30
0.0
  9
$LIMMIN
 10
0.0
 20
0.0
  9
$LIMMAX
 10
12.0
 20
9.0
  9
$ORTHOMODE
 70
     1
  9
$REGENMODE
 70
     1
  9
$FILLMODE
 70
     1
  9
$QTEXTMODE
 70
     0
  9
$MIRRTEXT
 70
     0
  9
$DRAGMODE
 70
     2
  9
$LTSCALE
 40
1.0
  9
$OSMODE
 70
  3071
  9
$ATTMODE
 70
     1
  9
$TEXTSIZE
 40
0.2
  9
$TRACEWID
 40
0.05
  9
$TEXTSTYLE
  7
STANDARD
  9
$CLAYER
  8
标注
  9
$CELTYPE
  6
BYLAYER
  9
$CECOLOR
 62
   256
  9
$DIMSCALE
 40
1.0
  9
$DIMASZ
 40
0.65
  9
$DIMEXO
 40
0.88
  9
$DIMDLI
 40
0.015
  9
$DIMRND
 40
0.0
  9
$DIMDLE
 40
0.0
  9
$DIMEXE
 40
0.32
  9
$DIMTP
 40
0.0
  9
$DIMTM
 40
0.0
  9
$DIMTXT
 40
0.65
  9
$DIMCEN
 40
0.09
  9
$DIMTSZ
 40
0.0
  9
$DIMTOL
 70
     0
  9
$DIMLIM
 70
     0
  9
$DIMTIH
 70
     0
  9
$DIMTOH
 70
     0
  9
$DIMSE1
 70
     0
  9
$DIMSE2
 70
     0
  9
$DIMTAD
 70
     0
  9
$DIMZIN
 70
     8
  9
$DIMBLK
  1

  9
$DIMASO
 70
     1
  9
$DIMSHO
 70
     1
  9
$DIMPOST
  1
"
  9
$DIMAPOST
  1
"
  9
$DIMALT
 70
     0
  9
$DIMALTD
 70
     1
  9
$DIMALTF
 40
0.03937
  9
$DIMLFAC
 40
1.0
  9
$DIMTOFL
 70
     1
  9
$DIMTVP
 40
0.0
  9
$DIMTIX
 70
     0
  9
$DIMSOXD
 70
     0
  9
$DIMSAH
 70
     0
  9
$DIMBLK1
  1

  9
$DIMBLK2
  1

  9
$DIMSTYLE
  2
副本STANDARD
  9
$DIMCLRD
 70
   256
  9
$DIMCLRE
 70
   256
  9
$DIMCLRT
 70
   256
  9
$DIMTFAC
 40
1.0
  9
$DIMGAP
 40
0.2
  9
$LUNITS
 70
     2
  9
$LUPREC
 70
     4
  9
$SKETCHINC
 40
0.1
  9
$FILLETRAD
 40
0.0
  9
$AUNITS
 70
     0
  9
$AUPREC
 70
     0
  9
$MENU
  1
.
  9
$ELEVATION
 40
0.0
  9
$PELEVATION
 40
0.0
  9
$THICKNESS
 40
0.0
  9
$LIMCHECK
 70
     0
  9
$BLIPMODE
 70
     0
  9
$CHAMFERA
 40
0.0
  9
$CHAMFERB
 40
0.0
  9
$SKPOLY
 70
     0
  9
$TDCREATE
 40
2455434.724808658
  9
$TDUPDATE
 40
2457411.5805198378
  9
$TDINDWG
 40
0.2828268056
  9
$TDUSRTIMER
 40
0.2828094907
  9
$USRTIMER
 70
     1
  9
$ANGBASE
 50
0.0
  9
$ANGDIR
 70
     0
  9
$PDMODE
 70
     0
  9
$PDSIZE
 40
0.0
  9
$PLINEWID
 40
0.0
  9
$COORDS
 70
     0
  9
$SPLFRAME
 70
     0
  9
$SPLINETYPE
 70
     6
  9
$SPLINESEGS
 70
     8
  9
$ATTDIA
 70
     1
  9
$ATTREQ
 70
     1
  9
$HANDLING
 70
     1
  9
$HANDSEED
  5
2F4E
  9
$SURFTAB1
 70
     6
  9
$SURFTAB2
 70
     6
  9
$SURFTYPE
 70
     6
  9
$SURFU
 70
     6
  9
$SURFV
 70
     6
  9
$UCSNAME
  2

  9
$UCSORG
 10
0.0
 20
0.0
 30
0.0
  9
$UCSXDIR
 10
1.0
 20
0.0
 30
0.0
  9
$UCSYDIR
 10
0.0
 20
1.0
 30
0.0
  9
$PUCSNAME
  2

  9
$PUCSORG
 10
0.0
 20
0.0
 30
0.0
  9
$PUCSXDIR
 10
1.0
 20
0.0
 30
0.0
  9
$PUCSYDIR
 10
0.0
 20
1.0
 30
0.0
  9
$USERI1
 70
     0
  9
$USERI2
 70
     0
  9
$USERI3
 70
     0
  9
$USERI4
 70
     0
  9
$USERI5
 70
     0
  9
$USERR1
 40
0.0
  9
$USERR2
 40
0.0
  9
$USERR3
 40
0.0
  9
$USERR4
 40
0.0
  9
$USERR5
 40
2.5
  9
$WORLDVIEW
 70
     1
  9
$SHADEDGE
 70
     3
  9
$SHADEDIF
 70
    70
  9
$TILEMODE
 70
     1
  9
$MAXACTVP
 70
    64
  9
$PLIMCHECK
 70
     0
  9
$PEXTMIN
 10
1.0000000000000000E+020
 20
1.0000000000000000E+020
 30
1.0000000000000000E+020
  9
$PEXTMAX
 10
-1.0000000000000000E+020
 20
-1.0000000000000000E+020
 30
-1.0000000000000000E+020
  9
$PLIMMIN
 10
0.0
 20
0.0
  9
$PLIMMAX
 10
12.0
 20
9.0
  9
$UNITMODE
 70
     0
  9
$VISRETAIN
 70
     1
  9
$PLINEGEN
 70
     0
  9
$PSLTSCALE
 70
     1
  0
ENDSEC
  0
SECTION
  2
TABLES
  0
TABLE
  2
VPORT
 70
     1
  0
VPORT
  2
*ACTIVE
 70
     0
 10
0.0
 20
0.0
 11
1.0
 21
1.0
 12
529.97540216833863
 22
124.81053891029021
 13
0.0
 23
0.0
 14
0.5
 24
0.5
 15
0.5
 25
0.5
 16
0.0
 26
0.0
 36
1.0
 17
0.0
 27
0.0
 37
0.0
 40
278.18339853393411
 41
1.4909326424870459
 42
50.0
 43
0.0
 44
0.0
 50
0.0
 51
0.0
 71
     0
 72
  1000
 73
     1
 74
     3
 75
     0
 76
     0
 77
     0
 78
     0
  0
ENDTAB
  0
TABLE
  2
LTYPE
 70
    19
  0
LTYPE
  2
CONTINUOUS
 70
     0
  3
Solid line
 72
    65
 73
     0
 40
0.0
  0
LTYPE
  2
CENTER2
 70
     0
  3
Center (.5x) ___ _ ___ _ ___ _ ___ _ ___ _ ___
 72
    65
 73
     4
 40
28.574999999999999
 49
19.050000000000001
 49
-3.174999999999998
 49
3.174999999999998
 49
-3.174999999999998
  0
LTYPE
  2
HIDDEN2
 70
     0
  3
Hidden (.5x) _ _ _ _ _ _ _ _ _ _ _ _ _ _ _ _ _
 72
    65
 73
     2
 40
4.7624999999999984
 49
3.174999999999998
 49
-1.587499999999999
  0
LTYPE
  2
HIDDEN
 70
     0
  3
Hidden __ __ __ __ __ __ __ __ __ __ __ __ __ _
 72
    65
 73
     2
 40
0.375
 49
0.25
 49
-0.125
  0
LTYPE
  2
PHANTOM2
 70
     0
  3
Phantom (.5x) ___ _ _ ___ _ _ ___ _ _ ___ _ _
 72
    65
 73
     6
 40
1.25
 49
0.625
 49
-0.125
 49
0.125
 49
-0.125
 49
0.125
 49
-0.125
  0
LTYPE
  2
CENTER
 70
     0
  3
Center ____ _ ____ _ ____ _ ____ _ ____ _ ____
 72
    65
 73
     4
 40
2.0
 49
1.25
 49
-0.25
 49
0.25
 49
-0.25
  0
LTYPE
  2
AM_ISO02W050
 70
     0
  3
__ __ __ __ __ __ __ __ __ __ __ __ __ __ __
 72
    65
 73
     2
 40
7.5
 49
6.0
 49
-1.5
  0
LTYPE
  2
AM_ISO08W050
 70
     0
  3
____ . ____ . ____ . ____ . ____ . ____ . ____
 72
    65
 73
     4
 40
18.0
 49
12.0
 49
-1.5
 49
3.0
 49
-1.5
  0
LTYPE
  2
AM_ISO09W050
 70
     0
  3
_____ . . _____ . . _____ . . ____ .. ____
 72
    65
 73
     6
 40
22.5
 49
12.0
 49
-1.5
 49
3.0
 49
-1.5
 49
3.0
 49
-1.5
  0
LTYPE
  2
AMCONSTR
 70
     0
  3
_______________________
 72
    65
 73
     2
 40
9999.0
 49
9999.0
 49
0.0
  0
LTYPE
  2
AM_ISO08W050X2
 70
     0
  3
__ . __ . __ . __ . __ . __
 72
    65
 73
     4
 40
9.0
 49
6.0
 49
-0.75
 49
1.5
 49
-0.75
  0
LTYPE
  2
AM_ISO02W050X2
 70
     0
  3
 _ _ _ _ _ _ _ _ _ _ _ _
 72
    65
 73
     2
 40
3.75
 49
3.0
 49
-0.75
  0
LTYPE
  2
AMZIGZAG
 70
     0
  3
/\/-/\/-/\/-/\/-/\/-/\/
 72
    65
 73
     2
 40
11.0001
 49
0.0001
 49
-11.0
  0
LTYPE
  2
AMZIGZAG2
 70
     0
  3
/\/-/\/-/\/-/\/-/\/-/\/
 72
    65
 73
     2
 40
0.4401
 49
0.0001
 49
-0.4400000000000003
  0
LTYPE
  2
ACANSTGB
 70
     0
  3
__ . . __ . .
 72
    65
 73
     6
 40
0.35433070866
 49
0.15748031496
 49
-0.03937007874
 49
0.03937007874
 49
-0.03937007874
 49
0.03937007874
 49
-0.03937007874
  0
LTYPE
  2
ACANSTGL
 70
     0
  3
_ _ _ _ _
 72
    65
 73
     2
 40
0.11811023622
 49
0.07874015748
 49
-0.03937007874
  0
LTYPE
  2
ACISOWELD
 70
     0
  3
_ _ _ _ _
 72
    65
 73
     2
 40
2.0
 49
2.0
 49
-1.0
  0
LTYPE
  2
ACISOTGB
 70
     0
  3
__ . . __ . .
 72
    65
 73
     6
 40
9.0
 49
4.0
 49
-1.0
 49
1.0
 49
-1.0
 49
1.0
 49
-1.0
  0
LTYPE
  2
ACISOTGL
 70
     0
  3
_ _ _ _ _
 72
    65
 73
     2
 40
3.0
 49
2.0
 49
-1.0
  0
ENDTAB
  0
TABLE
  2
LAYER
 70
    10
  0
LAYER
  2
0
 70
     0
 62
     7
  6
CONTINUOUS
  0
LAYER
  2
标注
 70
     0
 62
    80
  6
CONTINUOUS
  0
LAYER
  2
中心线
 70
     0
 62
     1
  6
CENTER2
  0
LAYER
  2
虚线
 70
     0
 62
     4
  6
HIDDEN2
  0
LAYER
  2
DEFPOINTS
 70
     0
 62
     7
  6
CONTINUOUS
  0
LAYER
  2
细实线
 70
     0
 62
     7
  6
CONTINUOUS
  0
LAYER
  2
标注线
 70
     0
 62
     3
  6
CONTINUOUS
  0
LAYER
  2
截面层
 70
     0
 62
     6
  6
CONTINUOUS
  0
LAYER
  2
粗实线
 70
     0
 62
     7
  6
CONTINUOUS
  0
LAYER
  2
BIAOZHU
 70
     0
 62
     3
  6
CONTINUOUS
  0
ENDTAB
  0
TABLE
  2
STYLE
 70
     7
  0
STYLE
  2
STANDARD
 70
     0
 40
0.0
 41
1.0
 50
0.0
 71
     0
 42
0.2
  3
txt
  4

  0
STYLE
  2
ANNOTATIVE
 70
     0
 40
0.0
 41
1.0
 50
0.0
 71
     0
 42
0.2
  3
txt
  4

  0
STYLE
  2

 70
     1
 40
0.0
 41
1.0
 50
0.0
 71
     0
 42
0.2
  3
genltshp.shx
  4

  0
STYLE
  2
ACANSGDT
 70
     0
 40
0.0
 41
1.0
 50
0.0
 71
     0
 42
0.2
  3
amgdt.shx
  4

  0
STYLE
  2
ACISOGDT
 70
     0
 40
0.0
 41
1.0
 50
0.0
 71
     0
 42
2.5
  3
amgdt.shx
  4

  0
STYLE
  2
ACANSTS
 70
     0
 40
1.0
 41
1.0
 50
0.0
 71
     0
 42
0.2
  3
romans.shx
  4
gbcbig.shx
  0
STYLE
  2
A35
 70
     0
 40
17.5
 41
1.0
 50
0.0
 71
     0
 42
17.5
  3
txt.shx
  4

  0
ENDTAB
  0
TABLE
  2
VIEW
 70
     0
  0
ENDTAB
  0
TABLE
  2
UCS
 70
     0
  0
ENDTAB
  0
TABLE
  2
APPID
 70
    26
  0
APPID
  2
ACAD
 70
     0
  0
APPID
  2
ACADANNOTATIVE
 70
     0
  0
APPID
  2
ACAECLAYERSTANDARD
 70
     0
  0
APPID
  2
ACAD_DSTYLE_DIMEXT_LENGTH
 70
     0
  0
APPID
  2
ACAD_DSTYLE_DIMEXT_ENABLED
 70
     0
  0
APPID
  2
ACAD_DSTYLE_DIMJOGGED_JOGA
 70
     0
  0
APPID
  2
ACAD_DSTYLE_DIMARC_LENGTH_
 70
     0
  0
APPID
  2
ACAD_PSEXT
 70
     0
  0
APPID
  2
MCAD_NO_VIS
 70
     0
  0
APPID
  2
ACAD_TEMP_GRAPHIC
 70
     0
  0
APPID
  2
AD_DRAW
 70
     0
  0
APPID
  2
ACATTRIBSERVICES
 70
     0
  0
APPID
  2
DESIGNERASSEMBLIES
 70
     0
  0
APPID
  2
ACADM_DIM_EDIT
 70
     0
  0
APPID
  2
AMDT_DM_ADJ
 70
     0
  0
APPID
  2
ACAD_DSTYLE_DIMJAG
 70
     0
  0
APPID
  2
ACAD_DSTYLE_DIMBREAK
 70
     0
  0
APPID
  2
ACAD_DSTYLE_DIMTALN
 70
     0
  0
APPID
  2
GENIUS_GENODEF_13
 70
     0
  0
APPID
  2
GENIUS_GENOBJ-N-FIL_13
 70
     0
  0
APPID
  2
ACAD_EXEMPT_FROM_CAD_STANDARDS
 70
     0
  0
APPID
  2
ACAD_MLEADERVER
 70
     0
  0
APPID
  2
ACAD_DSTYLE_DIM_LINETYPE
 70
     0
  0
APPID
  2
ACAD_DSTYLE_DIM_EXT1_LINETYPE
 70
     0
  0
APPID
  2
ACAD_DSTYLE_DIM_EXT2_LINETYPE
 70
     0
  0
APPID
  2
CONTENTBLOCKICON
 70
     0
  0
ENDTAB
  0
TABLE
  2
DIMSTYLE
 70
    27
  0
DIMSTYLE
  2
STANDARD
 70
     0
  3

  4

  5

  6

  7

 40
1.0
 41
0.18
 42
0.0625
 43
0.38
 44
0.18
 45
0.0
 46
0.0
 47
0.0
 48
0.0
140
0.18
141
0.09
142
0.0
143
25.399999999999999
144
1.0
145
0.0
146
1.0
147
0.09
 71
     0
 72
     0
 73
     1
 74
     1
 75
     0
 76
     0
 77
     0
 78
     0
170
     0
171
     2
172
     0
173
     0
174
     0
175
     0
176
     0
177
     0
178
     0
  0
DIMSTYLE
  2
ANNOTATIVE
 70
     0
  3

  4

  5

  6

  7

 40
1.0
 41
0.18
 42
0.0625
 43
0.38
 44
0.18
 45
0.0
 46
0.0
 47
0.0
 48
0.0
140
0.18
141
0.09
142
0.0
143
25.399999999999999
144
1.0
145
0.0
146
1.0
147
0.09
 71
     0
 72
     0
 73
     1
 74
     1
 75
     0
 76
     0
 77
     0
 78
     0
170
     0
171
     2
172
     0
173
     0
174
     0
175
     0
176
     0
177
     0
178
     0
  0
DIMSTYLE
  2
副本STANDARD
 70
     0
  3
"
  4
"
  5

  6

  7

 40
1.0
 41
0.65
 42
0.88
 43
0.015
 44
0.32
 45
0.0
 46
0.0
 47
0.0
 48
0.0
140
0.65
141
0.09
142
0.0
143
0.03937
144
1.0
145
0.0
146
1.0
147
0.2
 71
     0
 72
     0
 73
     0
 74
     0
 75
     0
 76
     0
 77
     0
 78
     8
170
     0
171
     1
172
     1
173
     0
174
     0
175
     0
176
   256
177
   256
178
   256
  0
DIMSTYLE
  2
AM_ANSI
 70
     0
  3

  4
mm
  5

  6

  7

 40
1.0
 41
0.12
 42
0.05
 43
0.5
 44
0.1
 45
0.0
 46
0.0
 47
0.1
 48
0.1
140
0.12
141
0.0
142
0.0
143
25.399999999999999
144
1.0
145
0.0
146
0.71
147
0.06
 71
     0
 72
     0
 73
     1
 74
     1
 75
     0
 76
     0
 77
     0
 78
     7
170
     0
171
     2
172
     0
173
     0
174
     0
175
     0
176
   256
177
   256
178
     2
  0
DIMSTYLE
  2
AM_ANSI$3
 70
     0
  3

  4
mm
  5

  6

  7

 40
1.0
 41
0.12
 42
0.05
 43
0.5
 44
0.1
 45
0.0
 46
0.0
 47
0.1
 48
0.1
140
0.12
141
0.0
142
0.0
143
25.399999999999999
144
1.0
145
0.0
146
0.71
147
0.06
 71
     0
 72
     0
 73
     1
 74
     1
 75
     0
 76
     0
 77
     0
 78
     7
170
     0
171
     2
172
     0
173
     0
174
     0
175
     0
176
   256
177
   256
178
     2
  0
DIMSTYLE
  2
AM_ANSI$4
 70
     0
  3

  4
mm
  5

  6

  7

 40
1.0
 41
0.12
 42
0.05
 43
0.5
 44
0.1
 45
0.0
 46
0.0
 47
0.1
 48
0.1
140
0.12
141
0.0
142
0.0
143
25.399999999999999
144
1.0
145
0.0
146
0.71
147
0.06
 71
     0
 72
     0
 73
     1
 74
     1
 75
     0
 76
     0
 77
     0
 78
     7
170
     0
171
     2
172
     0
173
     0
174
     0
175
     0
176
   256
177
   256
178
     2
  0
DIMSTYLE
  2
AM_ANSI$7
 70
     0
  3

  4
mm
  5

  6

  7

 40
1.0
 41
0.12
 42
0.05
 43
0.5
 44
0.1
 45
0.0
 46
0.0
 47
0.1
 48
0.1
140
0.12
141
0.0
142
0.0
143
25.399999999999999
144
1.0
145
0.0
146
0.71
147
0.06
 71
     0
 72
     0
 73
     1
 74
     1
 75
     0
 76
     0
 77
     0
 78
     7
170
     0
171
     2
172
     0
173
     0
174
     0
175
     0
176
   256
177
   256
178
     2
  0
DIMSTYLE
  2
AM_ANSI$SF
 70
     0
  3

  4
mm
  5

  6

  7

 40
1.0
 41
0.12
 42
0.05
 43
0.5
 44
0.1
 45
0.0
 46
0.0
 47
0.1
 48
0.1
140
0.12
141
0.0
142
0.0
143
25.399999999999999
144
1.0
145
0.0
146
0.71
147
0.06
 71
     0
 72
     0
 73
     1
 74
     1
 75
     1
 76
     1
 77
     0
 78
     7
170
     0
171
     2
172
     0
173
     0
174
     0
175
     0
176
   256
177
   256
178
     2
  0
DIMSTYLE
  2
AM_ANSI$SH
 70
     0
  3

  4
mm
  5

  6

  7

 40
1.0
 41
0.12
 42
0.05
 43
0.5
 44
0.1
 45
0.0
 46
0.0
 47
0.1
 48
0.1
140
0.12
141
0.0
142
0.0
143
25.399999999999999
144
1.0
145
0.0
146
0.71
147
0.06
 71
     0
 72
     0
 73
     1
 74
     1
 75
     1
 76
     1
 77
     0
 78
     7
170
     0
171
     2
172
     0
173
     1
174
     0
175
     0
176
   256
177
   256
178
     2
  0
DIMSTYLE
  2
AM_ISO
 70
     0
  3

  4
"
  5

  6

  7

 40
1.0
 41
3.5
 42
1.0
 43
10.0
 44
1.0
 45
0.0
 46
0.0
 47
0.1
 48
0.1
140
3.5
141
0.0
142
0.0
143
0.0393701
144
1.0
145
0.0
146
0.71
147
1.5
 71
     0
 72
     0
 73
     0
 74
     0
 75
     0
 76
     0
 77
     1
 78
     8
170
     0
171
     2
172
     1
173
     0
174
     0
175
     0
176
   256
177
   256
178
     2
  0
DIMSTYLE
  2
AM_ISO$3
 70
     0
  3

  4
"
  5

  6

  7

 40
1.0
 41
3.5
 42
1.0
 43
10.0
 44
1.0
 45
0.0
 46
0.0
 47
0.1
 48
0.1
140
3.5
141
0.0
142
0.0
143
0.0393701
144
1.0
145
0.0
146
0.71
147
1.5
 71
     0
 72
     0
 73
     0
 74
     1
 75
     0
 76
     0
 77
     1
 78
     8
170
     0
171
     2
172
     0
173
     0
174
     0
175
     0
176
   256
177
   256
178
     2
  0
DIMSTYLE
  2
AM_ISO$4
 70
     0
  3

  4
"
  5

  6

  7

 40
1.0
 41
3.5
 42
1.0
 43
10.0
 44
1.0
 45
0.0
 46
0.0
 47
0.1
 48
0.1
140
3.5
141
0.0
142
0.0
143
0.0393701
144
1.0
145
0.0
146
0.71
147
1.5
 71
     0
 72
     0
 73
     0
 74
     1
 75
     0
 76
     0
 77
     1
 78
     8
170
     0
171
     2
172
     0
173
     0
174
     0
175
     0
176
   256
177
   256
178
     2
  0
DIMSTYLE
  2
AM_ISO$6
 70
     0
  3

  4
"
  5

  6

  7

 40
1.0
 41
3.5
 42
1.0
 43
10.0
 44
1.0
 45
0.0
 46
0.0
 47
0.1
 48
0.1
140
3.5
141
0.0
142
0.0
143
0.0393701
144
1.0
145
0.0
146
0.71
147
1.5
 71
     0
 72
     0
 73
     0
 74
     0
 75
     0
 76
     0
 77
     0
 78
     8
170
     0
171
     2
172
     1
173
     0
174
     0
175
     0
176
   256
177
   256
178
     2
  0
DIMSTYLE
  2
AM_ISO$7
 70
     0
  3

  4
"
  5

  6

  7

 40
1.0
 41
3.5
 42
1.0
 43
10.0
 44
1.0
 45
0.0
 46
0.0
 47
0.1
 48
0.1
140
3.5
141
0.0
142
0.0
143
0.0393701
144
1.0
145
0.0
146
0.71
147
1.5
 71
     0
 72
     0
 73
     0
 74
     0
 75
     0
 76
     0
 77
     1
 78
     8
170
     0
171
     2
172
     1
173
     0
174
     0
175
     0
176
   256
177
   256
178
     2
  0
DIMSTYLE
  2
AM_ISO$SF
 70
     0
  3

  4
"
  5

  6

  7

 40
1.0
 41
3.5
 42
1.0
 43
10.0
 44
1.0
 45
0.0
 46
0.0
 47
0.1
 48
0.1
140
3.5
141
0.0
142
0.0
143
0.0393701
144
1.0
145
0.0
146
0.71
147
1.5
 71
     0
 72
     0
 73
     0
 74
     0
 75
     1
 76
     1
 77
     1
 78
     8
170
     0
171
     2
172
     1
173
     0
174
     0
175
     0
176
   256
177
   256
178
     2
  0
DIMSTYLE
  2
AM_ISO$SH
 70
     0
  3

  4
"
  5

  6

  7

 40
1.0
 41
3.5
 42
1.0
 43
10.0
 44
1.0
 45
0.0
 46
0.0
 47
0.1
 48
0.1
140
3.5
141
0.0
142
0.0
143
0.0393701
144
2.0
145
0.0
146
0.71
147
1.5
 71
     0
 72
     0
 73
     0
 74
     0
 75
     1
 76
     1
 77
     1
 78
     8
170
     0
171
     2
172
     1
173
     1
174
     0
175
     0
176
   256
177
   256
178
     2
  0
DIMSTYLE
  2
090319-
 70
     0
  3

  4

  5

  6

  7

 40
1.0
 41
16.0
 42
20.0
 43
1.5
 44
3.0
 45
0.0
 46
0.0
 47
0.0
 48
0.0
140
20.0
141
3.0
142
0.0
143
0.03937007874016
144
1.0
145
0.0
146
1.0
147
7.0
 71
     0
 72
     0
 73
     0
 74
     0
 75
     0
 76
     0
 77
     1
 78
     8
170
     0
171
     3
172
     1
173
     0
174
     0
175
     0
176
     0
177
     0
178
     0
  0
DIMSTYLE
  2
A35
 70
     0
  3

  4

  5

  6

  7

 40
0.0
 41
17.5
 42
9.0
 43
1.0
 44
9.0
 45
0.0
 46
0.0
 47
0.0
 48
0.0
140
17.5
141
0.0
142
0.0
143
25.399999999999999
144
1.0
145
0.0
146
1.0
147
9.0
 71
     0
 72
     0
 73
     0
 74
     0
 75
     0
 76
     0
 77
     1
 78
    12
170
     0
171
     2
172
     1
173
     0
174
     0
175
     0
176
   256
177
   256
178
   256
  0
DIMSTYLE
  2
副本__2_STANDARD
 70
     0
  3

  4
"
  5

  6

  7

 40
1.0
 41
16.0
 42
22.0
 43
0.38
 44
8.0
 45
0.0
 46
0.0
 47
0.0
 48
0.0
140
16.0
141
0.09
142
0.0
143
0.03937
144
1.0
145
0.0
146
1.0
147
5.0
 71
     0
 72
     0
 73
     0
 74
     0
 75
     0
 76
     0
 77
     0
 78
     8
170
     1
171
     1
172
     1
173
     0
174
     0
175
     0
176
     3
177
     3
178
     3
  0
DIMSTYLE
  2
副本__3_STANDARD
 70
     0
  3

  4
"
  5

  6

  7

 40
1.0
 41
16.0
 42
22.0
 43
0.38
 44
8.0
 45
0.0
 46
0.0
 47
0.0
 48
0.0
140
16.0
141
0.0
142
0.0
143
0.03937
144
1.0
145
0.0
146
1.0
147
5.0
 71
     0
 72
     0
 73
     0
 74
     0
 75
     0
 76
     0
 77
     0
 78
     8
170
     0
171
     3
172
     1
173
     0
174
     0
175
     1
176
     3
177
     3
178
     3
  0
DIMSTYLE
  2
XIAO
 70
     0
  3

  4

  5

  6

  7

 40
1.0
 41
3.5
 42
3.0
 43
1.0
 44
1.0
 45
0.0
 46
0.0
 47
0.0
 48
0.0
140
4.0
141
1.5
142
0.0
143
0.03937007874016
144
1.0
145
0.0
146
1.0
147
1.0
 71
     0
 72
     0
 73
     0
 74
     0
 75
     0
 76
     0
 77
     1
 78
     8
170
     0
171
     3
172
     1
173
     0
174
     0
175
     0
176
     0
177
     0
178
     0
  0
DIMSTYLE
  2
副本_STANDARD
 70
     0
  3

  4

  5

  6

  7

 40
1.0
 41
10.0
 42
0.0625
 43
0.38
 44
0.18
 45
0.0
 46
0.0
 47
0.0
 48
0.0
140
25.0
141
0.09
142
0.0
143
25.399999999999999
144
1.0
145
0.0
146
1.0
147
0.09
 71
     0
 72
     0
 73
     0
 74
     0
 75
     0
 76
     0
 77
     1
 78
     0
170
     0
171
     2
172
     0
173
     0
174
     0
175
     0
176
     7
177
     7
178
     0
  0
DIMSTYLE
  2
副本__3__STANDARD
 70
     0
  3

  4

  5

  6

  7

 40
1.0
 41
10.0
 42
0.0625
 43
0.38
 44
0.18
 45
0.0
 46
0.0
 47
0.0
 48
0.0
140
25.0
141
0.09
142
0.0
143
25.399999999999999
144
1.0
145
0.0
146
1.0
147
0.09
 71
     0
 72
     0
 73
     0
 74
     1
 75
     0
 76
     0
 77
     1
 78
     0
170
     0
171
     2
172
     0
173
     0
174
     0
175
     0
176
     7
177
     7
178
     0
  0
DIMSTYLE
  2
ISO-25
 70
     0
  3

  4

  5

  6

  7

 40
1.0
 41
15.0
 42
5.0
 43
3.75
 44
5.0
 45
0.0
 46
0.0
 47
0.0
 48
0.0
140
20.0
141
0.0
142
0.0
143
0.03937007874016
144
1.0
145
0.0
146
1.0
147
2.0
 71
     0
 72
     0
 73
     0
 74
     0
 75
     0
 76
     0
 77
     0
 78
     8
170
     0
171
     4
172
     1
173
     0
174
     0
175
     0
176
     3
177
     3
178
   256
  0
DIMSTYLE
  2
毫米英寸
 70
     0
  3

  4
"
  5

  6

  7

 40
1.0
 41
15.0
 42
5.0
 43
3.75
 44
5.0
 45
0.0
 46
0.0
 47
0.0
 48
0.0
140
20.0
141
0.0
142
0.0
143
0.03937007874016
144
1.0
145
0.0
146
1.0
147
2.0
 71
     0
 72
     0
 73
     0
 74
     0
 75
     0
 76
     0
 77
     0
 78
     8
170
     1
171
     3
172
     1
173
     0
174
     0
175
     0
176
     3
177
     3
178
   256
  0
DIMSTYLE
  2
副本ISO-25
 70
     0
  3

  4

  5

  6

  7

 40
1.0
 41
15.0
 42
0.625
 43
3.75
 44
1.25
 45
0.0
 46
0.0
 47
0.0
 48
0.0
140
15.0
141
2.5
142
0.0
143
0.03937007874016
144
1.0
145
0.0
146
1.0
147
0.625
 71
     0
 72
     0
 73
     0
 74
     1
 75
     0
 76
     0
 77
     1
 78
     8
170
     0
171
     1
172
     1
173
     0
174
     0
175
     0
176
     6
177
     6
178
     0
  0
DIMSTYLE
  2
副本__100818_STANDARD
 70
     0
  3

  4
"
  5

  6

  7

 40
1.0
 41
16.0
 42
0.0
 43
0.38
 44
7.0
 45
0.0
 46
0.0
 47
0.0
 48
0.0
140
20.0
141
0.09
142
0.0
143
0.03937
144
1.0
145
0.0
146
1.0
147
5.0
 71
     0
 72
     0
 73
     1
 74
     1
 75
     0
 76
     0
 77
     0
 78
     8
170
     0
171
     3
172
     1
173
     0
174
     0
175
     0
176
   256
177
   256
178
   256
  0
ENDTAB
  0
ENDSEC
  0
SECTION
  2
BLOCKS
  0
BLOCK
  8
0
  2
$MODEL_SPACE
 70
     0
 10
0.0
 20
0.0
 30
0.0
  3
$MODEL_SPACE
  1

  0
ENDBLK
  5
2BA0
  8
0
  0
BLOCK
 67
     1
  8
0
  2
$PAPER_SPACE
 70
     0
 10
0.0
 20
0.0
 30
0.0
  3
$PAPER_SPACE
  1

  0
ENDBLK
  5
2B9C
 67
     1
  8
0
  0
BLOCK
  8
0
  2
GENAXEH
 70
     0
 10
0.0
 20
0.0
 30
0.0
  3
GENAXEH
  1

  0
LINE
  5
1722
  8
0
 10
-1.0
 20
0.0
 30
0.0
 11
1.0
 21
0.0
 31
0.0
  0
ENDBLK
  5
1724
  8
0
  0
BLOCK
  8
0
  2
*U3
 70
     1
 10
0.0
 20
0.0
 30
0.0
  3
*U3
  1

  0
TEXT
  5
25AE
  8
标注
 10
278.10857533347991
 20
188.7031155711957
 30
0.0
 40
0.65
  1
9"
 50
90.0
  0
ENDBLK
  5
25B0
  8
0
  0
BLOCK
  8
0
  2
*U4
 70
     1
 10
0.0
 20
0.0
 30
0.0
  3
*U4
  1

  0
TEXT
  5
25B2
  8
标注
 10
259.96664454990457
 20
152.31669580177561
 30
0.0
 40
0.65
  1
28"
  0
ENDBLK
  5
25B4
  8
0
  0
BLOCK
  8
0
  2
*U5
 70
     1
 10
0.0
 20
0.0
 30
0.0
  3
*U5
  1

  0
TEXT
  5
25B6
  8
标注
 10
259.99718916932773
 20
150.4854921654649
 30
0.0
 40
0.65
  1
30"
  0
ENDBLK
  5
25B8
  8
0
  0
BLOCK
  8
0
  2
*U6
 70
     1
 10
0.0
 20
0.0
 30
0.0
  3
*U6
  1

  0
TEXT
  5
25BA
  8
标注
 10
277.96865574636121
 20
163.1443957570238
 30
0.0
 40
0.65
  1
16"
 50
90.0
  0
ENDBLK
  5
25BC
  8
0
  0
BLOCK
  8
0
  2
*U7
 70
     1
 10
0.0
 20
0.0
 30
0.0
  3
*U7
  1

  0
TEXT
  5
25BE
  8
标注
 10
279.70685460453012
 20
163.1443957570219
 30
0.0
 40
0.65
  1
18"
 50
90.0
  0
ENDBLK
  5
25C0
  8
0
  0
BLOCK
  8
0
  2
*U8
 70
     1
 10
0.0
 20
0.0
 30
0.0
  3
*U8
  1

  0
TEXT
  5
25C2
  8
标注
 10
260.84134250304152
 20
112.6320075107335
 30
0.0
 40
0.65
  1
28 1/8"
  0
ENDBLK
  5
25C4
  8
0
  0
BLOCK
  8
0
  2
*U9
 70
     1
 10
0.0
 20
0.0
 30
0.0
  3
*U9
  1

  0
TEXT
  5
25C6
  8
标注
 10
279.33176146406828
 20
121.9863500978319
 30
0.0
 40
0.65
  1
16 1/8"
 50
90.0
  0
ENDBLK
  5
25C8
  8
0
  0
BLOCK
  8
0
  2
_NONE
 70
     0
 10
0.0
 20
0.0
 30
0.0
  3
_NONE
  1

  0
ENDBLK
  5
1AF0
  8
0
  0
BLOCK
  8
0
  2
*U11
 70
     1
 10
0.0
 20
0.0
 30
0.0
  3
*U11
  1

  0
TEXT
  5
25D1
  8
标注
 10
343.52579719931367
 20
149.5929431051932
 30
0.0
 40
0.65
  1
30"
  0
ENDBLK
  5
25D3
  8
0
  0
BLOCK
  8
0
  2
*U12
 70
     1
 10
0.0
 20
0.0
 30
0.0
  3
*U12
  1

  0
TEXT
  5
25D5
  8
标注
 10
343.471630532647
 20
148.39444058882069
 30
0.0
 40
0.65
  1
32"
  0
ENDBLK
  5
25D7
  8
0
  0
BLOCK
  8
0
  2
*U13
 70
     1
 10
0.0
 20
0.0
 30
0.0
  3
*U13
  1

  0
TEXT
  5
25D9
  8
标注
 10
362.16037919908388
 20
160.65531420891381
 30
0.0
 40
0.65
  1
16"
 50
90.0
  0
ENDBLK
  5
25DB
  8
0
  0
BLOCK
  8
0
  2
*U14
 70
     1
 10
0.0
 20
0.0
 30
0.0
  3
*U14
  1

  0
TEXT
  5
25DD
  8
标注
 10
363.55931005100132
 20
160.6553142089065
 30
0.0
 40
0.65
  1
18"
 50
90.0
  0
ENDBLK
  5
25DF
  8
0
  0
BLOCK
  8
0
  2
*U15
 70
     1
 10
0.0
 20
0.0
 30
0.0
  3
*U15
  1

  0
TEXT
  5
25CD
  8
标注
 10
362.27318220725431
 20
184.3666646119905
 30
0.0
 40
0.65
  1
10"
 50
90.0
  0
ENDBLK
  5
25CF
  8
0
  0
BLOCK
  8
0
  2
*U16
 70
     1
 10
0.0
 20
0.0
 30
0.0
  3
*U16
  1

  0
TEXT
  5
25E1
  8
标注
 10
361.46195892393843
 20
120.78345465014191
 30
0.0
 40
0.65
  1
16 1/8"
 50
90.0
  0
ENDBLK
  5
25E3
  8
0
  0
BLOCK
  8
0
  2
*U17
 70
     1
 10
0.0
 20
0.0
 30
0.0
  3
*U17
  1

  0
TEXT
  5
25E5
  8
标注
 10
342.37251577423888
 20
111.9065438515469
 30
0.0
 40
0.65
  1
30 1/8"
  0
ENDBLK
  5
25E7
  8
0
  0
BLOCK
  8
0
  2
*U18
 70
     1
 10
0.0
 20
0.0
 30
0.0
  3
*U18
  1

  0
TEXT
  5
25ED
  8
标注
 10
392.65719322351669
 20
113.03248384790091
 30
0.0
 40
0.65
  1
30 1/8"
  0
ENDBLK
  5
25EF
  8
0
  0
BLOCK
  8
0
  2
*U19
 70
     1
 10
0.0
 20
0.0
 30
0.0
  3
*U19
  1

  0
TEXT
  5
25F1
  8
标注
 10
412.37827949016628
 20
121.7766809349519
 30
0.0
 40
0.65
  1
16 1/8"
 50
90.0
  0
ENDBLK
  5
25F3
  8
0
  0
BLOCK
  8
0
  2
*U20
 70
     1
 10
0.0
 20
0.0
 30
0.0
  3
*U20
  1

  0
TEXT
  5
25FD
  8
标注
 10
393.84885989018341
 20
147.40362079089769
 30
0.0
 40
0.65
  1
30"
  0
ENDBLK
  5
25FF
  8
0
  0
BLOCK
  8
0
  2
*U21
 70
     1
 10
0.0
 20
0.0
 30
0.0
  3
*U21
  1

  0
TEXT
  5
25F5
  8
标注
 10
393.79469322351679
 20
145.9982744764491
 30
0.0
 40
0.65
  1
32"
  0
ENDBLK
  5
25F7
  8
0
  0
BLOCK
  8
0
  2
*U22
 70
     1
 10
0.0
 20
0.0
 30
0.0
  3
*U22
  1

  0
TEXT
  5
2601
  8
标注
 10
412.55843136942502
 20
157.9729541185304
 30
0.0
 40
0.65
  1
16"
 50
90.0
  0
ENDBLK
  5
2603
  8
0
  0
BLOCK
  8
0
  2
*U23
 70
     1
 10
0.0
 20
0.0
 30
0.0
  3
*U23
  1

  0
TEXT
  5
25F9
  8
标注
 10
413.87096430879279
 20
158.0123281559575
 30
0.0
 40
0.65
  1
18"
 50
90.0
  0
ENDBLK
  5
25FB
  8
0
  0
BLOCK
  8
0
  2
*D24
 70
     1
 10
0.0
 20
0.0
 30
0.0
  3
*D24
  1

  0
LINE
  5
2406
  8
标注
  6
BYBLOCK
 10
469.18339367142391
 20
187.376976522278
 30
0.0
 11
470.6786519143721
 21
187.376976522278
 31
0.0
  0
LINE
  5
2407
  8
标注
  6
BYBLOCK
 10
469.21562465844721
 20
178.43453467404481
 30
0.0
 11
470.6786519143721
 21
178.43453467404481
 31
0.0
  0
LINE
  5
2408
  8
标注
  6
BYBLOCK
 10
470.3586519143721
 20
186.72697652227799
 30
0.0
 11
470.3586519143721
 21
183.4323651646352
 31
0.0
  0
LINE
  5
2409
  8
标注
  6
BYBLOCK
 10
470.3586519143721
 20
179.08453467404479
 30
0.0
 11
470.3586519143721
 21
182.16569849796849
 31
0.0
  0
SOLID
  5
240A
  8
标注
 10
470.25031858103881
 20
186.72697652227799
 30
0.0
 11
470.46698524770551
 21
186.72697652227799
 31
0.0
 12
470.3586519143721
 22
187.376976522278
 32
0.0
 13
470.3586519143721
 23
187.376976522278
 33
0.0
  0
SOLID
  5
240B
  8
标注
 10
470.25031858103881
 20
179.08453467404479
 30
0.0
 11
470.46698524770551
 21
179.08453467404479
 31
0.0
 12
470.3586519143721
 22
178.43453467404481
 32
0.0
 13
470.3586519143721
 23
178.43453467404481
 33
0.0
  0
INSERT
  5
240C
  8
标注
  2
*U25
 10
0.0
 20
0.0
 30
0.0
  0
POINT
  5
240D
  8
DEFPOINTS
 62
     0
 10
468.30339367142392
 20
187.376976522278
 30
0.0
  0
POINT
  5
240E
  8
DEFPOINTS
 62
     0
 10
468.33562465844722
 20
178.43453467404481
 30
0.0
  0
POINT
  5
240F
  8
DEFPOINTS
 62
     0
 10
470.3586519143721
 20
178.43453467404481
 30
0.0
  0
ENDBLK
  5
2028
  8
0
  0
BLOCK
  8
0
  2
*U25
 70
     1
 10
0.0
 20
0.0
 30
0.0
  3
*U25
  1

  0
TEXT
  5
261B
  8
标注
 10
470.68365191437198
 20
182.36569849796851
 30
0.0
 40
0.65
  1
9"
 50
90.0
  0
ENDBLK
  5
261D
  8
0
  0
BLOCK
  8
0
  2
*D26
 70
     1
 10
0.0
 20
0.0
 30
0.0
  3
*D26
  1

  0
LINE
  5
2450
  8
标注
  6
BYBLOCK
 10
439.30339367154022
 20
148.7823281559921
 30
0.0
 11
439.30339367154022
 21
147.7406797977844
 31
0.0
  0
LINE
  5
2451
  8
标注
  6
BYBLOCK
 10
467.3033936714275
 20
148.7823281559921
 30
0.0
 11
467.3033936714275
 21
147.7406797977844
 31
0.0
  0
LINE
  5
2452
  8
标注
  6
BYBLOCK
 10
439.9533936715402
 20
148.0606797977843
 30
0.0
 11
452.34506033815057
 21
148.0606797977843
 31
0.0
  0
LINE
  5
2453
  8
标注
  6
BYBLOCK
 10
466.65339367142758
 20
148.0606797977843
 30
0.0
 11
454.26172700481732
 21
148.0606797977843
 31
0.0
  0
SOLID
  5
2454
  8
标注
 10
439.9533936715402
 20
148.16901313111759
 30
0.0
 11
439.9533936715402
 21
147.95234646445101
 31
0.0
 12
439.30339367154022
 22
148.0606797977843
 32
0.0
 13
439.30339367154022
 23
148.0606797977843
 33
0.0
  0
SOLID
  5
2455
  8
标注
 10
466.65339367142758
 20
148.16901313111759
 30
0.0
 11
466.65339367142758
 21
147.95234646445101
 31
0.0
 12
467.3033936714275
 22
148.0606797977843
 32
0.0
 13
467.3033936714275
 23
148.0606797977843
 33
0.0
  0
INSERT
  5
2456
  8
标注
  2
*U27
 10
0.0
 20
0.0
 30
0.0
  0
POINT
  5
2457
  8
DEFPOINTS
 62
     0
 10
439.30339367154022
 20
149.66232815599199
 30
0.0
  0
POINT
  5
2458
  8
DEFPOINTS
 62
     0
 10
467.3033936714275
 20
149.66232815599199
 30
0.0
  0
POINT
  5
2459
  8
DEFPOINTS
 62
     0
 10
467.3033936714275
 20
148.0606797977843
 30
0.0
  0
ENDBLK
  5
2397
  8
0
  0
BLOCK
  8
0
  2
*U27
 70
     1
 10
0.0
 20
0.0
 30
0.0
  3
*U27
  1

  0
TEXT
  5
262B
  8
标注
 10
452.54506033815039
 20
147.73567979778429
 30
0.0
 40
0.65
  1
28"
  0
ENDBLK
  5
262D
  8
0
  0
BLOCK
  8
0
  2
*D28
 70
     1
 10
0.0
 20
0.0
 30
0.0
  3
*D28
  1

  0
LINE
  5
23BD
  8
标注
  6
BYBLOCK
 10
438.30339367154392
 20
148.7823281559921
 30
0.0
 11
438.30339367154392
 21
146.24595408827761
 31
0.0
  0
LINE
  5
23BE
  8
标注
  6
BYBLOCK
 10
468.30339367142392
 20
148.7823281559921
 30
0.0
 11
468.30339367142392
 21
146.24595408827761
 31
0.0
  0
LINE
  5
23BF
  8
标注
  6
BYBLOCK
 10
438.95339367154389
 20
146.56595408827769
 30
0.0
 11
452.39922700481719
 21
146.56595408827769
 31
0.0
  0
LINE
  5
23C0
  8
标注
  6
BYBLOCK
 10
467.65339367142388
 20
146.56595408827769
 30
0.0
 11
454.20756033815059
 21
146.56595408827769
 31
0.0
  0
SOLID
  5
23C1
  8
标注
 10
438.95339367154389
 20
146.67428742161101
 30
0.0
 11
438.95339367154389
 21
146.45762075494429
 31
0.0
 12
438.30339367154392
 22
146.56595408827769
 32
0.0
 13
438.30339367154392
 23
146.56595408827769
 33
0.0
  0
SOLID
  5
23C2
  8
标注
 10
467.65339367142388
 20
146.67428742161101
 30
0.0
 11
467.65339367142388
 21
146.45762075494429
 31
0.0
 12
468.30339367142392
 22
146.56595408827769
 32
0.0
 13
468.30339367142392
 23
146.56595408827769
 33
0.0
  0
INSERT
  5
23C3
  8
标注
  2
*U29
 10
0.0
 20
0.0
 30
0.0
  0
POINT
  5
23C4
  8
DEFPOINTS
 62
     0
 10
438.30339367154392
 20
149.66232815599199
 30
0.0
  0
POINT
  5
23C5
  8
DEFPOINTS
 62
     0
 10
468.30339367142392
 20
149.66232815599199
 30
0.0
  0
POINT
  5
23C6
  8
DEFPOINTS
 62
     0
 10
468.30339367142392
 20
146.56595408827769
 30
0.0
  0
ENDBLK
  5
23B1
  8
0
  0
BLOCK
  8
0
  2
*U29
 70
     1
 10
0.0
 20
0.0
 30
0.0
  3
*U29
  1

  0
TEXT
  5
2617
  8
标注
 10
452.59922700481701
 20
146.2409540882777
 30
0.0
 40
0.65
  1
30"
  0
ENDBLK
  5
2619
  8
0
  0
BLOCK
  8
0
  2
*D30
 70
     1
 10
0.0
 20
0.0
 30
0.0
  3
*D30
  1

  0
LINE
  5
2432
  8
标注
  6
BYBLOCK
 10
469.18339367142391
 20
150.6623281559884
 30
0.0
 11
470.27402386808802
 21
150.6623281559884
 31
0.0
  0
LINE
  5
2433
  8
标注
  6
BYBLOCK
 10
469.18339367142391
 20
166.66232815592471
 30
0.0
 11
470.27402386808802
 21
166.66232815592471
 31
0.0
  0
LINE
  5
2434
  8
标注
  6
BYBLOCK
 10
469.95402386808809
 20
151.31232815598841
 30
0.0
 11
469.95402386808809
 21
157.81232815595661
 31
0.0
  0
LINE
  5
2435
  8
标注
  6
BYBLOCK
 10
469.95402386808809
 20
166.01232815592471
 30
0.0
 11
469.95402386808809
 21
159.5123281559566
 31
0.0
  0
SOLID
  5
2436
  8
标注
 10
469.84569053475479
 20
151.31232815598841
 30
0.0
 11
470.06235720142132
 21
151.31232815598841
 31
0.0
 12
469.95402386808809
 22
150.6623281559884
 32
0.0
 13
469.95402386808809
 23
150.6623281559884
 33
0.0
  0
SOLID
  5
2437
  8
标注
 10
469.84569053475479
 20
166.01232815592471
 30
0.0
 11
470.06235720142132
 21
166.01232815592471
 31
0.0
 12
469.95402386808809
 22
166.66232815592471
 32
0.0
 13
469.95402386808809
 23
166.66232815592471
 33
0.0
  0
INSERT
  5
2438
  8
标注
  2
*U31
 10
0.0
 20
0.0
 30
0.0
  0
POINT
  5
2439
  8
DEFPOINTS
 62
     0
 10
468.30339367142392
 20
150.6623281559884
 30
0.0
  0
POINT
  5
243A
  8
DEFPOINTS
 62
     0
 10
468.30339367142392
 20
166.66232815592471
 30
0.0
  0
POINT
  5
243B
  8
DEFPOINTS
 62
     0
 10
469.95402386808809
 20
166.66232815592471
 30
0.0
  0
ENDBLK
  5
23CB
  8
0
  0
BLOCK
  8
0
  2
*U31
 70
     1
 10
0.0
 20
0.0
 30
0.0
  3
*U31
  1

  0
TEXT
  5
2627
  8
标注
 10
470.27902386808802
 20
158.01232815595671
 30
0.0
 40
0.65
  1
16"
 50
90.0
  0
ENDBLK
  5
2629
  8
0
  0
BLOCK
  8
0
  2
*D32
 70
     1
 10
0.0
 20
0.0
 30
0.0
  3
*D32
  1

  0
LINE
  5
2490
  8
标注
  6
BYBLOCK
 10
469.18339367142391
 20
149.66232815599199
 30
0.0
 11
471.57906396464227
 21
149.66232815599199
 31
0.0
  0
LINE
  5
2491
  8
标注
  6
BYBLOCK
 10
469.18339367142391
 20
167.66232815591931
 30
0.0
 11
471.57906396464227
 21
167.66232815591931
 31
0.0
  0
LINE
  5
2492
  8
标注
  6
BYBLOCK
 10
471.25906396464239
 20
150.31232815599199
 30
0.0
 11
471.25906396464239
 21
157.8123281559557
 31
0.0
  0
LINE
  5
2493
  8
标注
  6
BYBLOCK
 10
471.25906396464239
 20
167.01232815591931
 30
0.0
 11
471.25906396464239
 21
159.51232815595569
 31
0.0
  0
SOLID
  5
2494
  8
标注
 10
471.1507306313087
 20
150.31232815599199
 30
0.0
 11
471.36739729797569
 21
150.31232815599199
 31
0.0
 12
471.25906396464239
 22
149.66232815599199
 32
0.0
 13
471.25906396464239
 23
149.66232815599199
 33
0.0
  0
SOLID
  5
2495
  8
标注
 10
471.1507306313087
 20
167.01232815591931
 30
0.0
 11
471.36739729797569
 21
167.01232815591931
 31
0.0
 12
471.25906396464239
 22
167.66232815591931
 32
0.0
 13
471.25906396464239
 23
167.66232815591931
 33
0.0
  0
INSERT
  5
2496
  8
标注
  2
*U33
 10
0.0
 20
0.0
 30
0.0
  0
POINT
  5
2497
  8
DEFPOINTS
 62
     0
 10
468.30339367142392
 20
149.66232815599199
 30
0.0
  0
POINT
  5
2498
  8
DEFPOINTS
 62
     0
 10
468.30339367142392
 20
167.66232815591931
 30
0.0
  0
POINT
  5
2499
  8
DEFPOINTS
 62
     0
 10
471.25906396464239
 20
167.66232815591931
 30
0.0
  0
ENDBLK
  5
23E5
  8
0
  0
BLOCK
  8
0
  2
*U33
 70
     1
 10
0.0
 20
0.0
 30
0.0
  3
*U33
  1

  0
TEXT
  5
2633
  8
标注
 10
471.58406396464221
 20
158.0123281559558
 30
0.0
 40
0.65
  1
18"
 50
90.0
  0
ENDBLK
  5
2635
  8
0
  0
BLOCK
  8
0
  2
*D34
 70
     1
 10
0.0
 20
0.0
 30
0.0
  3
*D34
  1

  0
LINE
  5
249A
  8
标注
  6
BYBLOCK
 10
438.55802785390063
 20
116.4931990971385
 30
0.0
 11
438.55802785390063
 21
114.5769542962978
 31
0.0
  0
LINE
  5
249B
  8
标注
  6
BYBLOCK
 10
466.71550816875123
 20
116.4931990971385
 30
0.0
 11
466.71550816875123
 21
114.5769542962978
 31
0.0
  0
LINE
  5
249C
  8
标注
  6
BYBLOCK
 10
439.2080278539006
 20
114.89695429629781
 30
0.0
 11
450.48676801132569
 21
114.89695429629781
 31
0.0
  0
LINE
  5
249D
  8
标注
  6
BYBLOCK
 10
466.06550816875119
 20
114.89695429629781
 30
0.0
 11
454.78676801132571
 21
114.89695429629781
 31
0.0
  0
SOLID
  5
249E
  8
标注
 10
439.2080278539006
 20
115.0052876296311
 30
0.0
 11
439.2080278539006
 21
114.7886209629644
 31
0.0
 12
438.55802785390063
 22
114.89695429629781
 32
0.0
 13
438.55802785390063
 23
114.89695429629781
 33
0.0
  0
SOLID
  5
249F
  8
标注
 10
466.06550816875119
 20
115.0052876296311
 30
0.0
 11
466.06550816875119
 21
114.7886209629644
 31
0.0
 12
466.71550816875123
 22
114.89695429629781
 32
0.0
 13
466.71550816875123
 23
114.89695429629781
 33
0.0
  0
INSERT
  5
24A0
  8
标注
  2
*U35
 10
0.0
 20
0.0
 30
0.0
  0
POINT
  5
24A1
  8
DEFPOINTS
 62
     0
 10
438.55802785390063
 20
117.3731990971385
 30
0.0
  0
POINT
  5
24A2
  8
DEFPOINTS
 62
     0
 10
466.71550816875123
 20
117.3731990971385
 30
0.0
  0
POINT
  5
24A3
  8
DEFPOINTS
 62
     0
 10
466.71550816875123
 20
114.89695429629781
 30
0.0
  0
ENDBLK
  5
245D
  8
0
  0
BLOCK
  8
0
  2
*U35
 70
     1
 10
0.0
 20
0.0
 30
0.0
  3
*U35
  1

  0
TEXT
  5
2637
  8
标注
 10
450.6867680113258
 20
114.5719542962978
 30
0.0
 40
0.65
  1
28 1/8"
  0
ENDBLK
  5
2639
  8
0
  0
BLOCK
  8
0
  2
*D36
 70
     1
 10
0.0
 20
0.0
 30
0.0
  3
*D36
  1

  0
LINE
  5
24A4
  8
标注
  6
BYBLOCK
 10
467.59550816875111
 20
117.3731990971385
 30
0.0
 11
469.51547765134109
 21
117.3731990971385
 31
0.0
  0
LINE
  5
24A5
  8
标注
  6
BYBLOCK
 10
467.59550816875111
 20
133.5306794120327
 30
0.0
 11
469.51547765134109
 21
133.5306794120327
 31
0.0
  0
LINE
  5
24A6
  8
标注
  6
BYBLOCK
 10
469.19547765134092
 20
118.0231990971385
 30
0.0
 11
469.19547765134092
 21
123.4102725879189
 31
0.0
  0
LINE
  5
24A7
  8
标注
  6
BYBLOCK
 10
469.19547765134092
 20
132.88067941203269
 30
0.0
 11
469.19547765134092
 21
127.4936059212523
 31
0.0
  0
SOLID
  5
24A8
  8
标注
 10
469.08714431800769
 20
118.0231990971385
 30
0.0
 11
469.3038109846745
 21
118.0231990971385
 31
0.0
 12
469.19547765134092
 22
117.3731990971385
 32
0.0
 13
469.19547765134092
 23
117.3731990971385
 33
0.0
  0
SOLID
  5
24A9
  8
标注
 10
469.08714431800769
 20
132.88067941203269
 30
0.0
 11
469.3038109846745
 21
132.88067941203269
 31
0.0
 12
469.19547765134092
 22
133.5306794120327
 32
0.0
 13
469.19547765134092
 23
133.5306794120327
 33
0.0
  0
INSERT
  5
24AA
  8
标注
  2
*U37
 10
0.0
 20
0.0
 30
0.0
  0
POINT
  5
24AB
  8
DEFPOINTS
 62
     0
 10
466.71550816875123
 20
117.3731990971385
 30
0.0
  0
POINT
  5
24AC
  8
DEFPOINTS
 62
     0
 10
466.71550816875123
 20
133.5306794120327
 30
0.0
  0
POINT
  5
24AD
  8
DEFPOINTS
 62
     0
 10
469.19547765134092
 20
133.5306794120327
 30
0.0
  0
ENDBLK
  5
2477
  8
0
  0
BLOCK
  8
0
  2
*U37
 70
     1
 10
0.0
 20
0.0
 30
0.0
  3
*U37
  1

  0
TEXT
  5
263B
  8
标注
 10
469.52047765134108
 20
123.610272587919
 30
0.0
 40
0.65
  1
16 1/8"
 50
90.0
  0
ENDBLK
  5
263D
  8
0
  0
BLOCK
  8
0
  2
*U38
 70
     1
 10
0.0
 20
0.0
 30
0.0
  3
*U38
  1

  0
CIRCLE
  5
260E
  8
细实线
 10
453.30339367148201
 20
162.1347691008238
 30
0.0
 40
2.2834645669200002
  0
ENDBLK
  5
2610
  8
0
  0
BLOCK
  8
0
  2
*U39
 70
     1
 10
0.0
 20
0.0
 30
0.0
  3
*U39
  1

  0
TEXT
  5
261F
  8
标注
 10
450.74766956096067
 20
174.71456777703659
 30
0.0
 40
0.7874015748031497
  1
FRONT VIEW
  0
ENDBLK
  5
2621
  8
0
  0
BLOCK
  8
0
  2
*U40
 70
     1
 10
0.0
 20
0.0
 30
0.0
  3
*U40
  1

  0
TEXT
  5
2623
  8
标注
 10
448.57417635820309
 20
142.2692820316137
 30
0.0
 40
0.7874015748031497
  1
OVERHEAD VIEW
  0
ENDBLK
  5
2625
  8
0
  0
BLOCK
  8
0
  2
*U41
 70
     1
 10
0.0
 20
0.0
 30
0.0
  3
*U41
  1

  0
TEXT
  5
262F
  8
标注
 10
454.41030911666621
 20
109.1110711691899
 30
0.0
 40
0.7874015748031497
  1
 CUTOUT
  0
ENDBLK
  5
2631
  8
0
  0
BLOCK
  8
0
  2
_OBLIQUE
 70
     0
 10
0.0
 20
0.0
 30
0.0
  3
_OBLIQUE
  1

  0
LINE
  5
2CC4
  8
0
  6
BYBLOCK
 62
     0
 10
-0.5
 20
-0.5
 30
0.0
 11
0.5
 21
0.5
 31
0.0
  0
ENDBLK
  5
2CC5
  8
0
  0
BLOCK
  8
0
  2
*D45
 70
     1
 10
0.0
 20
0.0
 30
0.0
  3
*D45
  1

  0
LINE
  5
2F27
  8
标注
 10
494.1959123343666
 20
110.5320730951389
 30
0.0
 11
494.1959123343666
 21
108.67542798193151
 31
0.0
  0
LINE
  5
2F28
  8
标注
 10
524.35358949962836
 20
110.5320730951389
 30
0.0
 11
524.35358949962836
 21
108.67542798193151
 31
0.0
  0
LINE
  5
2F29
  8
标注
 10
494.84591233436657
 20
108.9954279819315
 30
0.0
 11
507.17891758366409
 21
108.9954279819315
 31
0.0
  0
LINE
  5
2F2A
  8
标注
 10
523.70358949962827
 20
108.9954279819315
 30
0.0
 11
511.37058425033081
 21
108.9954279819315
 31
0.0
  0
SOLID
  5
2F2B
  8
标注
 10
494.84591233436657
 20
109.1037613152648
 30
0.0
 11
494.84591233436657
 21
108.88709464859809
 31
0.0
 12
494.1959123343666
 22
108.9954279819315
 32
0.0
 13
494.1959123343666
 23
108.9954279819315
 33
0.0
  0
SOLID
  5
2F2C
  8
标注
 10
523.70358949962827
 20
109.1037613152648
 30
0.0
 11
523.70358949962827
 21
108.88709464859809
 31
0.0
 12
524.35358949962836
 22
108.9954279819315
 32
0.0
 13
524.35358949962836
 23
108.9954279819315
 33
0.0
  0
TEXT
  8
标注
  40
0.65
  5
2F4D
  72
0
  71
0
 10
507.975
 20
107.845
 30
0.000000
  1
30 1/8"
  0
POINT
  5
2F2E
  8
DEFPOINTS
 62
     0
 10
494.1959123343666
 20
111.41207309513889
 30
0.0
  0
POINT
  5
2F2F
  8
DEFPOINTS
 62
     0
 10
524.35358949962836
 20
111.41207309513889
 30
0.0
  0
POINT
  5
2F30
  8
DEFPOINTS
 62
     0
 10
524.35358949962836
 20
108.9954279819315
 30
0.0
  0
ENDBLK
  5
2E33
  8
0
  0
BLOCK
  8
0
  2
*D46
 70
     1
 10
0.0
 20
0.0
 30
0.0
  3
*D46
  1

  0
LINE
  5
2E4C
  8
标注
 10
525.23358949962835
 20
111.41207309513889
 30
0.0
 11
527.34249592364063
 21
111.41207309513889
 31
0.0
  0
LINE
  5
2E4D
  8
标注
 10
525.23358949962835
 20
130.11138391170499
 30
0.0
 11
527.34249592364063
 21
130.11138391170499
 31
0.0
  0
LINE
  5
2E4E
  8
标注
 10
527.02249592364046
 20
112.0620730951389
 30
0.0
 11
527.02249592364046
 21
118.611728503422
 31
0.0
  0
LINE
  5
2E4F
  8
标注
 10
527.02249592364046
 20
129.46138391170501
 30
0.0
 11
527.02249592364046
 21
122.911728503422
 31
0.0
  0
SOLID
  5
2E50
  8
标注
 10
526.91416259030723
 20
112.0620730951389
 30
0.0
 11
527.13082925697393
 21
112.0620730951389
 31
0.0
 12
527.02249592364046
 22
111.41207309513889
 32
0.0
 13
527.02249592364046
 23
111.41207309513889
 33
0.0
  0
SOLID
  5
2E51
  8
标注
 10
526.91416259030723
 20
129.46138391170501
 30
0.0
 11
527.13082925697393
 21
129.46138391170501
 31
0.0
 12
527.02249592364046
 22
130.11138391170499
 32
0.0
 13
527.02249592364046
 23
130.11138391170499
 33
0.0
  0
INSERT
  5
2E52
  8
标注
  2
*U57
 10
0.0
 20
0.0
 30
0.0
  0
POINT
  5
2E53
  8
DEFPOINTS
 62
     0
 10
524.35358949962836
 20
111.41207309513889
 30
0.0
  0
POINT
  5
2E54
  8
DEFPOINTS
 62
     0
 10
524.35358949962836
 20
130.11138391170499
 30
0.0
  0
POINT
  5
2E55
  8
DEFPOINTS
 62
     0
 10
527.02249592364046
 20
130.11138391170499
 30
0.0
  0
ENDBLK
  5
2E4B
  8
0
  0
BLOCK
  8
0
  2
*D47
 70
     1
 10
0.0
 20
0.0
 30
0.0
  3
*D47
  1

  0
LINE
  5
2E5A
  8
标注
 10
494.99262079232432
 20
152.88125081012191
 30
0.0
 11
494.99262079232432
 21
148.66668604844131
 31
0.0
  0
LINE
  5
2E5B
  8
标注
 10
524.99281764259865
 20
152.88125081012549
 30
0.0
 11
524.99281764259865
 21
148.66668604844131
 31
0.0
  0
LINE
  5
2E5C
  8
标注
 10
495.64262079232429
 20
148.9866860484413
 30
0.0
 11
509.08855255079487
 21
148.9866860484413
 31
0.0
  0
LINE
  5
2E5D
  8
标注
 10
524.34281764259856
 20
148.9866860484413
 30
0.0
 11
510.8968858841281
 21
148.9866860484413
 31
0.0
  0
SOLID
  5
2E5E
  8
标注
 10
495.64262079232429
 20
149.09501938177459
 30
0.0
 11
495.64262079232429
 21
148.87835271510801
 31
0.0
 12
494.99262079232432
 22
148.9866860484413
 32
0.0
 13
494.99262079232432
 23
148.9866860484413
 33
0.0
  0
SOLID
  5
2E5F
  8
标注
 10
524.34281764259856
 20
149.09501938177459
 30
0.0
 11
524.34281764259856
 21
148.87835271510801
 31
0.0
 12
524.99281764259865
 22
148.9866860484413
 32
0.0
 13
524.99281764259865
 23
148.9866860484413
 33
0.0
  0
INSERT
  5
2E60
  8
标注
  2
*U58
 10
0.0
 20
0.0
 30
0.0
  0
POINT
  5
2E61
  8
DEFPOINTS
 62
     0
 10
494.99262079232432
 20
153.76125081012191
 30
0.0
  0
POINT
  5
2E62
  8
DEFPOINTS
 62
     0
 10
524.99281764259865
 20
153.76125081012549
 30
0.0
  0
POINT
  5
2E63
  8
DEFPOINTS
 62
     0
 10
524.99281764259865
 20
148.9866860484413
 30
0.0
  0
ENDBLK
  5
2E59
  8
0
  0
BLOCK
  8
0
  2
*D48
 70
     1
 10
0.0
 20
0.0
 30
0.0
  3
*D48
  1

  0
LINE
  5
2E68
  8
标注
 10
493.55561291830668
 20
150.3812508101328
 30
0.0
 11
493.55561291830668
 21
146.41430776299691
 31
0.0
  0
LINE
  5
2E69
  8
标注
 10
526.42982547592715
 20
150.3812508064151
 30
0.0
 11
526.42982547592715
 21
146.41430776299691
 31
0.0
  0
LINE
  5
2E6A
  8
标注
 10
494.20561291830671
 20
146.73430776299691
 30
0.0
 11
507.7343858637837
 21
146.73430776299691
 31
0.0
  0
LINE
  5
2E6B
  8
标注
 10
525.77982547592717
 20
146.73430776299691
 30
0.0
 11
512.25105253045035
 21
146.73430776299691
 31
0.0
  0
SOLID
  5
2E6C
  8
标注
 10
494.20561291830671
 20
146.84264109633031
 30
0.0
 11
494.20561291830671
 21
146.62597442966359
 31
0.0
 12
493.55561291830668
 22
146.73430776299691
 32
0.0
 13
493.55561291830668
 23
146.73430776299691
 33
0.0
  0
SOLID
  5
2E6D
  8
标注
 10
525.77982547592717
 20
146.84264109633031
 30
0.0
 11
525.77982547592717
 21
146.62597442966359
 31
0.0
 12
526.42982547592715
 22
146.73430776299691
 32
0.0
 13
526.42982547592715
 23
146.73430776299691
 33
0.0
  0
INSERT
  5
2E6E
  8
标注
  2
*U59
 10
0.0
 20
0.0
 30
0.0
  0
POINT
  5
2E6F
  8
DEFPOINTS
 62
     0
 10
493.55561291830668
 20
151.26125081013279
 30
0.0
  0
POINT
  5
2E70
  8
DEFPOINTS
 62
     0
 10
526.42982547592715
 20
151.26125080641509
 30
0.0
  0
POINT
  5
2E71
  8
DEFPOINTS
 62
     0
 10
526.42982547592715
 20
146.73430776299691
 30
0.0
  0
ENDBLK
  5
2E67
  8
0
  0
BLOCK
  8
0
  2
*D49
 70
     1
 10
0.0
 20
0.0
 30
0.0
  3
*D49
  1

  0
LINE
  5
2E76
  8
标注
 10
525.87281764259865
 20
153.76125081012549
 30
0.0
 11
528.13252756349698
 21
153.76125081012549
 31
0.0
  0
LINE
  5
2E77
  8
标注
 10
525.87281764259865
 20
169.76125081006001
 30
0.0
 11
528.13252756349698
 21
169.76125081006001
 31
0.0
  0
LINE
  5
2E78
  8
标注
 10
527.81252756349704
 20
154.41125081012549
 30
0.0
 11
527.81252756349704
 21
160.91125081009281
 31
0.0
  0
LINE
  5
2E79
  8
标注
 10
527.81252756349704
 20
169.11125081006
 30
0.0
 11
527.81252756349704
 21
162.6112508100928
 31
0.0
  0
SOLID
  5
2E7A
  8
标注
 10
527.70419423016369
 20
154.41125081012549
 30
0.0
 11
527.92086089683028
 21
154.41125081012549
 31
0.0
 12
527.81252756349704
 22
153.76125081012549
 32
0.0
 13
527.81252756349704
 23
153.76125081012549
 33
0.0
  0
SOLID
  5
2E7B
  8
标注
 10
527.70419423016369
 20
169.11125081006
 30
0.0
 11
527.92086089683028
 21
169.11125081006
 31
0.0
 12
527.81252756349704
 22
169.76125081006001
 32
0.0
 13
527.81252756349704
 23
169.76125081006001
 33
0.0
  0
INSERT
  5
2E7C
  8
标注
  2
*U60
 10
0.0
 20
0.0
 30
0.0
  0
POINT
  5
2E7D
  8
DEFPOINTS
 62
     0
 10
524.99281764259865
 20
153.76125081012549
 30
0.0
  0
POINT
  5
2E7E
  8
DEFPOINTS
 62
     0
 10
524.99281764259865
 20
169.76125081006001
 30
0.0
  0
POINT
  5
2E7F
  8
DEFPOINTS
 62
     0
 10
527.81252756349704
 20
169.76125081006001
 30
0.0
  0
ENDBLK
  5
2E75
  8
0
  0
BLOCK
  8
0
  2
*D50
 70
     1
 10
0.0
 20
0.0
 30
0.0
  3
*D50
  1

  0
LINE
  5
2E8C
  8
标注
 10
510.87271921743348
 20
150.51125081013771
 30
0.0
 11
530.09182742837868
 21
150.51125081013771
 31
0.0
  0
LINE
  5
2E8D
  8
标注
 10
527.3098255166185
 20
171.2612508100527
 30
0.0
 11
530.09182742837868
 21
171.2612508100527
 31
0.0
  0
LINE
  5
2E8E
  8
标注
 10
529.77182742837874
 20
151.16125081013769
 30
0.0
 11
529.77182742837874
 21
158.68208414342851
 31
0.0
  0
LINE
  5
2E8F
  8
标注
 10
529.77182742837874
 20
170.6112508100527
 30
0.0
 11
529.77182742837874
 21
163.0904174767619
 31
0.0
  0
SOLID
  5
2E90
  8
标注
 10
529.66349409504528
 20
151.16125081013769
 30
0.0
 11
529.88016076171209
 21
151.16125081013769
 31
0.0
 12
529.77182742837874
 22
150.51125081013771
 32
0.0
 13
529.77182742837874
 23
150.51125081013771
 33
0.0
  0
SOLID
  5
2E91
  8
标注
 10
529.66349409504528
 20
170.6112508100527
 30
0.0
 11
529.88016076171209
 21
170.6112508100527
 31
0.0
 12
529.77182742837874
 22
171.2612508100527
 32
0.0
 13
529.77182742837874
 23
171.2612508100527
 33
0.0
  0
INSERT
  5
2E92
  8
标注
  2
*U61
 10
0.0
 20
0.0
 30
0.0
  0
POINT
  5
2E93
  8
DEFPOINTS
 62
     0
 10
509.99271921743349
 20
150.51125081013771
 30
0.0
  0
POINT
  5
2E94
  8
DEFPOINTS
 62
     0
 10
526.42982551661851
 20
171.2612508100527
 30
0.0
  0
POINT
  5
2E95
  8
DEFPOINTS
 62
     0
 10
529.77182742837874
 20
171.2612508100527
 30
0.0
  0
ENDBLK
  5
2E8B
  8
0
  0
BLOCK
  8
0
  2
*D51
 70
     1
 10
0.0
 20
0.0
 30
0.0
  3
*D51
  1

  0
LINE
  5
2E9A
  8
标注
 10
527.3098255166185
 20
180.45184030998541
 30
0.0
 11
528.47069336966945
 21
180.45184030998541
 31
0.0
  0
LINE
  5
2E9B
  8
标注
 10
527.3098255166185
 20
188.4518403099527
 30
0.0
 11
528.47069336966945
 21
188.4518403099527
 31
0.0
  0
LINE
  5
2E9C
  8
标注
 10
528.15069336966951
 20
181.10184030998539
 30
0.0
 11
528.15069336966951
 21
183.81850697663569
 31
0.0
  0
LINE
  5
2E9D
  8
标注
 10
528.15069336966951
 20
187.80184030995269
 30
0.0
 11
528.15069336966951
 21
185.0851736433024
 31
0.0
  0
SOLID
  5
2E9E
  8
标注
 10
528.04236003633605
 20
181.10184030998539
 30
0.0
 11
528.25902670300286
 21
181.10184030998539
 31
0.0
 12
528.15069336966951
 22
180.45184030998541
 32
0.0
 13
528.15069336966951
 23
180.45184030998541
 33
0.0
  0
SOLID
  5
2E9F
  8
标注
 10
528.04236003633605
 20
187.80184030995269
 30
0.0
 11
528.25902670300286
 21
187.80184030995269
 31
0.0
 12
528.15069336966951
 22
188.4518403099527
 32
0.0
 13
528.15069336966951
 23
188.4518403099527
 33
0.0
  0
INSERT
  5
2EA0
  8
标注
  2
*U62
 10
0.0
 20
0.0
 30
0.0
  0
POINT
  5
2EA1
  8
DEFPOINTS
 62
     0
 10
526.42982551661851
 20
180.45184030998541
 30
0.0
  0
POINT
  5
2EA2
  8
DEFPOINTS
 62
     0
 10
526.42982551661851
 20
188.4518403099527
 30
0.0
  0
POINT
  5
2EA3
  8
DEFPOINTS
 62
     0
 10
528.15069336966951
 20
188.4518403099527
 30
0.0
  0
ENDBLK
  5
2E99
  8
0
  0
BLOCK
  8
0
  2
*D52
 70
     1
 10
0.0
 20
0.0
 30
0.0
  3
*D52
  1

  0
LINE
  5
2EBC
  8
标注
 10
527.36632100346765
 20
179.4006194055975
 30
0.0
 11
530.15009344864109
 21
179.4006194055975
 31
0.0
  0
LINE
  5
2EBD
  8
标注
 10
527.3098255166185
 20
188.4518403099527
 30
0.0
 11
530.15009344864109
 21
188.4518403099527
 31
0.0
  0
LINE
  5
2EBE
  8
标注
 10
529.83009344864115
 20
180.0506194055975
 30
0.0
 11
529.83009344864115
 21
183.2928965244418
 31
0.0
  0
LINE
  5
2EBF
  8
标注
 10
529.83009344864115
 20
187.80184030995269
 30
0.0
 11
529.83009344864115
 21
184.5595631911084
 31
0.0
  0
SOLID
  5
2EC0
  8
标注
 10
529.7217601153078
 20
180.0506194055975
 30
0.0
 11
529.93842678197439
 21
180.0506194055975
 31
0.0
 12
529.83009344864115
 22
179.4006194055975
 32
0.0
 13
529.83009344864115
 23
179.4006194055975
 33
0.0
  0
SOLID
  5
2EC1
  8
标注
 10
529.7217601153078
 20
187.80184030995269
 30
0.0
 11
529.93842678197439
 21
187.80184030995269
 31
0.0
 12
529.83009344864115
 22
188.4518403099527
 32
0.0
 13
529.83009344864115
 23
188.4518403099527
 33
0.0
  0
INSERT
  5
2EC2
  8
标注
  2
*U63
 10
0.0
 20
0.0
 30
0.0
  0
POINT
  5
2EC3
  8
DEFPOINTS
 62
     0
 10
526.48632100346765
 20
179.4006194055975
 30
0.0
  0
POINT
  5
2EC4
  8
DEFPOINTS
 62
     0
 10
526.42982551661851
 20
188.4518403099527
 30
0.0
  0
POINT
  5
2EC5
  8
DEFPOINTS
 62
     0
 10
529.83009344864115
 20
188.4518403099527
 30
0.0
  0
ENDBLK
  5
2EA7
  8
0
  0
BLOCK
  8
0
  2
*U53
 70
     1
 10
0.0
 20
0.0
 30
0.0
  3
*U53
  1

  0
CIRCLE
  5
2F18
  8
0
 10
8.6870175545627717
 20
53.82157510295292
 30
0.0
 40
2.2834645669200002
  0
ENDBLK
  5
2F1A
  8
0
  0
BLOCK
  8
0
  2
*U54
 70
     1
 10
0.0
 20
0.0
 30
0.0
  3
*U54
  1

  0
CIRCLE
  5
2F1C
  8
0
 10
24.187115979701051
 20
53.82157510295292
 30
0.0
 40
2.2834645669200002
  0
ENDBLK
  5
2F1E
  8
0
  0
BLOCK
  8
0
  2
*U55
 70
     1
 10
0.0
 20
0.0
 30
0.0
  3
*U55
  1

  0
CIRCLE
  5
2F20
  8
0
 10
502.24262079229521
 20
165.23369175496089
 30
0.0
 40
2.2834645669200002
  0
ENDBLK
  5
2F22
  8
0
  0
BLOCK
  8
0
  2
*U56
 70
     1
 10
0.0
 20
0.0
 30
0.0
  3
*U56
  1

  0
CIRCLE
  5
2F24
  8
0
 10
517.74271921743355
 20
165.23369175496089
 30
0.0
 40
2.2834645669200002
  0
ENDBLK
  5
2F26
  8
0
  0
BLOCK
  8
0
  2
*U57
 70
     1
 10
0.0
 20
0.0
 30
0.0
  3
*U57
  1

  0
TEXT
  5
2F32
  8
标注
 10
527.34749592364051
 20
118.8117285034221
 30
0.0
 40
0.65
  1
18 3/4"
 50
90.0
  0
ENDBLK
  5
2F34
  8
0
  0
BLOCK
  8
0
  2
*U58
 70
     1
 10
0.0
 20
0.0
 30
0.0
  3
*U58
  1

  0
TEXT
  5
2F36
  8
标注
 10
509.28855255079492
 20
148.66168604844131
 30
0.0
 40
0.65
  1
30"
  0
ENDBLK
  5
2F38
  8
0
  0
BLOCK
  8
0
  2
*U59
 70
     1
 10
0.0
 20
0.0
 30
0.0
  3
*U59
  1

  0
TEXT
  5
2F3A
  8
标注
 10
507.93438586378358
 20
146.40930776299689
 30
0.0
 40
0.65
  1
32 7/8"
  0
ENDBLK
  5
2F3C
  8
0
  0
BLOCK
  8
0
  2
*U60
 70
     1
 10
0.0
 20
0.0
 30
0.0
  3
*U60
  1

  0
TEXT
  5
2F3E
  8
标注
 10
528.13752756349686
 20
161.1112508100928
 30
0.0
 40
0.65
  1
16"
 50
90.0
  0
ENDBLK
  5
2F40
  8
0
  0
BLOCK
  8
0
  2
*U61
 70
     1
 10
0.0
 20
0.0
 30
0.0
  3
*U61
  1

  0
TEXT
  5
2F42
  8
标注
 10
530.09682742837856
 20
158.88208414342861
 30
0.0
 40
0.65
  1
20 3/4"
 50
90.0
  0
ENDBLK
  5
2F44
  8
0
  0
BLOCK
  8
0
  2
*U62
 70
     1
 10
0.0
 20
0.0
 30
0.0
  3
*U62
  1

  0
TEXT
  5
2F46
  8
标注
 10
528.47569336966944
 20
184.01850697663579
 30
0.0
 40
0.65
  1
8"
 50
90.0
  0
ENDBLK
  5
2F48
  8
0
  0
BLOCK
  8
0
  2
*U63
 70
     1
 10
0.0
 20
0.0
 30
0.0
  3
*U63
  1

  0
TEXT
  5
2F4A
  8
标注
 10
530.15509344864097
 20
183.49289652444179
 30
0.0
 40
0.65
  1
9"
 50
90.0
  0
ENDBLK
  5
2F4C
  8
0
  0
ENDSEC
  0
SECTION
  2
ENTITIES
  0
INSERT
  5
248E
  8
标注
  2
*U41
 10
55.761101343427121
 20
-5.3075778857278797
 30
0.0
  0
LINE
  5
248F
  8
中心线
  6
CONTINUOUS
 62
     1
 10
502.5060043795263
 20
104.05669475076679
 30
0.0
 11
508.72280938361058
 21
104.05669475076679
 31
0.0
  0
LINE
  5
2D2B
  8
0
 10
493.55561291830668
 20
171.2612508100527
 30
0.0
 11
493.55561291830668
 21
151.26125081013279
 31
0.0
  0
LINE
  5
2D2C
  8
0
 10
526.42982551661851
 20
171.2612508100527
 30
0.0
 11
493.55561291830668
 21
171.2612508100527
 31
0.0
  0
LINE
  5
2D2D
  8
0
 10
526.42982551661851
 20
151.26125081013279
 30
0.0
 11
526.42982551661851
 21
171.2612508100527
 31
0.0
  0
LINE
  5
2D2E
  8
0
 10
524.99281764260093
 20
153.76125081012549
 30
0.0
 11
524.99281764260093
 21
169.76125081006001
 31
0.0
  0
LINE
  5
2D2F
  8
0
 10
494.99262079232432
 20
169.76125081006001
 30
0.0
 11
494.99262079232432
 21
153.76125081012191
 31
0.0
  0
LINE
  5
2D30
  8
0
 10
494.99262079232432
 20
153.76125081012191
 30
0.0
 11
509.49262079226611
 21
153.76125081012549
 31
0.0
  0
LINE
  5
2D31
  8
0
 10
510.49262079226622
 20
153.76125081012549
 30
0.0
 11
524.99281764260093
 21
153.76125081012549
 31
0.0
  0
LINE
  5
2D32
  8
0
 10
524.99281764260093
 20
169.76125081006001
 30
0.0
 11
510.49262079226622
 21
169.76125081006001
 31
0.0
  0
LINE
  5
2D33
  8
0
 10
509.49262079226611
 20
169.76125081006001
 30
0.0
 11
494.99262079232432
 21
169.76125081006001
 31
0.0
  0
LINE
  5
2D34
  8
0
 10
524.99281764260093
 20
162.6492827787614
 30
0.0
 11
524.99281764260093
 21
162.6492827787614
 31
0.0
  0
ARC
  5
2D35
  8
0
 10
509.99271921743349
 20
331.00522647095829
 30
0.0
 40
180.49397566082061
 50
264.77498665476031
 51
275.22501334523969
  0
LINE
  5
2D36
  8
0
 10
499.95915622537427
 20
179.37310015250739
 30
0.0
 11
504.5260853592161
 21
179.37310015250739
 31
0.0
  0
LINE
  5
2D37
  8
0
 10
494.99262079232432
 20
188.4518403099527
 30
0.0
 11
524.99281764260093
 21
188.4518403099527
 31
0.0
  0
LINE
  5
2D38
  8
0
 10
493.55561291830668
 20
188.4518403099527
 30
0.0
 11
493.55561291830668
 21
180.45184030998541
 31
0.0
  0
LINE
  5
2D39
  8
0
 10
524.55580976858334
 20
188.4518403099527
 30
0.0
 11
526.42982551661851
 21
188.4518403099527
 31
0.0
  0
LINE
  5
2D3A
  8
0
 10
524.99281764260093
 20
179.66227167528891
 30
0.0
 11
524.99281764260093
 21
180.45184030998541
 31
0.0
  0
LINE
  5
2D3B
  8
虚线
 10
494.99262079232432
 20
188.4518403099527
 30
0.0
 11
494.99262079232432
 21
180.45184030998541
 31
0.0
  0
LINE
  5
2D3C
  8
0
 10
493.55561291830668
 20
188.4518403099527
 30
0.0
 11
495.4296286663419
 21
188.4518403099527
 31
0.0
  0
LINE
  5
2D3D
  8
0
 10
493.55561291830668
 20
180.45184030998541
 30
0.0
 11
494.30561291830679
 21
180.45184030998541
 31
0.0
  0
LINE
  5
2D3E
  8
0
 10
526.42982551661851
 20
188.4518403099527
 30
0.0
 11
526.42982551661851
 21
180.45184030998541
 31
0.0
  0
LINE
  5
2D3F
  8
0
 10
526.42982551661851
 20
180.45184030998541
 30
0.0
 11
525.67982551661839
 21
180.45184030998541
 31
0.0
  0
LINE
  5
2D40
  8
虚线
 10
525.67982551661839
 20
152.7612508101291
 30
0.0
 11
525.67982551661839
 21
171.2612508100527
 31
0.0
  0
LINE
  5
2D41
  8
虚线
 10
494.30561291830679
 20
171.2612508100527
 30
0.0
 11
494.30561291830679
 21
152.76125081012549
 31
0.0
  0
LINE
  5
2D42
  8
虚线
 10
494.30561291830679
 20
152.76125081012549
 30
0.0
 11
525.67982551661839
 21
152.7612508101291
 31
0.0
  0
LINE
  5
2D43
  8
虚线
 10
526.42982551661851
 20
186.45184030996001
 30
0.0
 11
493.55561291830668
 21
186.45184030996001
 31
0.0
  0
LINE
  5
2D44
  8
虚线
 10
524.46132157960972
 20
186.45184030996001
 30
0.0
 11
525.67982551661839
 21
180.45184030998541
 31
0.0
  0
LINE
  5
2D45
  8
虚线
 10
495.52411685531558
 20
186.45184030996001
 30
0.0
 11
494.30561291830679
 21
180.45184030998541
 31
0.0
  0
LINE
  5
2D46
  8
0
 10
494.30561291830679
 20
180.45184030998541
 30
0.0
 11
525.67982551661839
 21
180.45184030998541
 31
0.0
  0
LINE
  5
2D47
  8
虚线
 10
524.99281764260093
 20
180.45184030998541
 30
0.0
 11
524.99281764260093
 21
188.4518403099527
 31
0.0
  0
LINE
  5
2D48
  8
0
 10
494.99262079232432
 20
180.45184030998541
 30
0.0
 11
494.99262079232432
 21
179.66227167528891
 31
0.0
  0
LINE
  5
2D49
  8
0
 10
500.47096724901058
 20
179.18708413188401
 30
0.0
 11
504.01427433560889
 21
179.18708413188401
 31
0.0
  0
LINE
  5
2D4A
  8
0
 10
499.90743975585502
 20
179.37310015250739
 30
0.0
 11
504.57780182882283
 21
179.37310015250739
 31
0.0
  0
LINE
  5
2D4B
  8
0
 10
509.39943978876988
 20
179.56779252879539
 30
0.0
 11
504.57780182876451
 21
179.37310015250739
 31
0.0
  0
ARC
  5
2D4C
  8
0
 10
524.89832945362718
 20
179.66227167528891
 30
0.0
 40
0.094488188976
 50
270.79267684047301
 51
0.0
  0
LINE
  5
2D4D
  8
0
 10
495.0858017958206
 20
179.56779252879539
 30
0.0
 11
499.90743975582592
 21
179.37310015250739
 31
0.0
  0
ARC
  5
2D4E
  8
0
 10
495.087108981298
 20
179.66227167528891
 30
0.0
 40
0.094488188976
 50
180.0
 51
269.20732315952699
  0
LINE
  5
2D4F
  8
0
 10
499.94661977546349
 20
179.3511852539076
 30
0.0
 11
500.02346474321968
 21
179.23015937534259
 31
0.0
  0
LINE
  5
2D50
  8
0
 10
500.10323194673111
 20
179.18631909946899
 30
0.0
 11
500.47096724901058
 21
179.18631909946899
 31
0.0
  0
LINE
  5
2D51
  8
0
 10
504.38200963788842
 20
179.18631909946899
 30
0.0
 11
504.01427433560889
 21
179.18631909946899
 31
0.0
  0
LINE
  5
2D52
  8
0
 10
504.53862180912699
 20
179.3511852539076
 30
0.0
 11
504.46177684137081
 21
179.23015937534259
 31
0.0
  0
ARC
  5
2D53
  8
0
 10
499.90673617372238
 20
179.32586129735401
 30
0.0
 40
0.047244094488
 50
32.413366077575162
 51
89.146691734375779
  0
ARC
  5
2D54
  8
0
 10
504.5785054108681
 20
179.32586129735401
 30
0.0
 40
0.047244094488
 50
90.853308265624207
 51
147.5866339224248
  0
ARC
  5
2D55
  8
0
 10
500.10323194673111
 20
179.28080728844259
 30
0.0
 40
0.094488188976
 50
212.41336607757509
 51
270.0
  0
ARC
  5
2D56
  8
0
 10
504.38200963788842
 20
179.28080728844259
 30
0.0
 40
0.094488188976
 50
270.0
 51
327.58663392242482
  0
LINE
  5
2D57
  8
0
 10
509.49262079226611
 20
169.76125081006001
 30
0.0
 11
509.49262079226611
 21
153.76125081012549
 31
0.0
  0
LINE
  5
2D58
  8
0
 10
510.49262079226622
 20
169.76125081006001
 30
0.0
 11
510.49262079226622
 21
153.76125081012549
 31
0.0
  0
INSERT
  5
2D59
  8
标注
  2
*U55
 10
0.0
 20
0.0
 30
0.0
  0
CIRCLE
  5
2D5A
  8
细实线
 10
502.24262079229521
 20
165.23369175496089
 30
0.0
 40
2.1653543307000001
  0
CIRCLE
  5
2D5B
  8
0
 10
502.24262079229521
 20
165.23369175496089
 30
0.0
 40
1.791338582669838
  0
LINE
  5
2D5C
  8
细实线
 10
494.99262079232432
 20
169.76125081006001
 30
0.0
 11
500.30580368457311
 21
166.44321642174589
 31
0.0
  0
LINE
  5
2D5D
  8
细实线
 10
504.17943790001738
 20
166.4432164217495
 30
0.0
 11
509.49262079226611
 21
169.76125081006001
 31
0.0
  0
LINE
  5
2D5E
  8
细实线
 10
494.99262079232432
 20
153.76125081012191
 30
0.0
 11
501.02275583639567
 21
163.3033705594743
 31
0.0
  0
LINE
  5
2D5F
  8
细实线
 10
503.46248574819481
 20
163.30337055947061
 30
0.0
 11
509.49262079226611
 21
153.76125081012549
 31
0.0
  0
INSERT
  5
2D60
  8
标注
  2
*U56
 10
0.0
 20
0.0
 30
0.0
  0
CIRCLE
  5
2D61
  8
细实线
 10
517.74271921743355
 20
165.23369175496089
 30
0.0
 40
2.1653543307000001
  0
CIRCLE
  5
2D62
  8
0
 10
517.74271921743355
 20
165.23369175496089
 30
0.0
 40
1.791338582669838
  0
LINE
  5
2D63
  8
细实线
 10
524.99281764260093
 20
169.76125081006001
 30
0.0
 11
519.67963475035208
 21
166.44321642174589
 31
0.0
  0
LINE
  5
2D64
  8
细实线
 10
515.80600053490775
 20
166.4432164217495
 30
0.0
 11
510.49281764265908
 21
169.76125081006001
 31
0.0
  0
LINE
  5
2D65
  8
细实线
 10
524.99281764260093
 20
153.76125081012191
 30
0.0
 11
518.96268259852945
 21
163.3033705594743
 31
0.0
  0
LINE
  5
2D66
  8
细实线
 10
516.52295268673049
 20
163.30337055947061
 30
0.0
 11
510.49281764265908
 21
153.76125081012549
 31
0.0
  0
LINE
  5
2D67
  8
虚线
 10
509.49262079226611
 20
188.4518403099527
 30
0.0
 11
509.49262079226611
 21
180.45184030998541
 31
0.0
  0
LINE
  5
2D68
  8
0
 10
509.49262079226611
 20
180.45184030998541
 30
0.0
 11
509.49262079226611
 21
179.66227167528891
 31
0.0
  0
ARC
  5
2D69
  8
0
 10
509.39813260329248
 20
179.66227167528891
 30
0.0
 40
0.094488188976
 50
270.79267684047301
 51
0.0
  0
LINE
  5
2D6A
  8
中心线
 10
509.99271921746259
 20
178.7414288738718
 30
0.0
 11
509.99271921746259
 21
189.27689790469859
 31
0.0
  0
LINE
  5
2D6B
  8
0
 10
520.02628220955091
 20
179.37310015250739
 30
0.0
 11
515.45935307570915
 21
179.37310015250739
 31
0.0
  0
LINE
  5
2D6C
  8
0
 10
519.51447118594376
 20
179.18708413188401
 30
0.0
 11
515.9711640993163
 21
179.18708413188401
 31
0.0
  0
LINE
  5
2D6D
  8
0
 10
520.07799867907022
 20
179.37310015250739
 30
0.0
 11
515.40763660610253
 21
179.37310015250739
 31
0.0
  0
LINE
  5
2D6E
  8
0
 10
510.5859986461553
 20
179.56779252879539
 30
0.0
 11
515.40763660616074
 21
179.37310015250739
 31
0.0
  0
LINE
  5
2D6F
  8
0
 10
524.89963663910464
 20
179.56779252879539
 30
0.0
 11
520.07799867909932
 21
179.37310015250739
 31
0.0
  0
LINE
  5
2D70
  8
0
 10
520.03881865946175
 20
179.3511852539076
 30
0.0
 11
519.96197369170545
 21
179.23015937534259
 31
0.0
  0
LINE
  5
2D71
  8
0
 10
519.88220648819413
 20
179.18631909946899
 30
0.0
 11
519.51447118594376
 21
179.18631909946899
 31
0.0
  0
LINE
  5
2D72
  8
0
 10
515.60342879706593
 20
179.18631909946899
 30
0.0
 11
515.9711640993163
 21
179.18631909946899
 31
0.0
  0
LINE
  5
2D73
  8
0
 10
515.44681662579819
 20
179.3511852539076
 30
0.0
 11
515.52366159355438
 21
179.23015937534259
 31
0.0
  0
ARC
  5
2D74
  8
0
 10
520.07870226120292
 20
179.32586129735401
 30
0.0
 40
0.047244094488
 50
90.853308265624207
 51
147.5866339224248
  0
ARC
  5
2D75
  8
0
 10
515.40693302405714
 20
179.32586129735401
 30
0.0
 40
0.047244094488
 50
32.413366077575162
 51
89.146691734375779
  0
ARC
  5
2D76
  8
0
 10
519.88220648819413
 20
179.28080728844259
 30
0.0
 40
0.094488188976
 50
270.0
 51
327.58663392242482
  0
ARC
  5
2D77
  8
0
 10
515.60342879706593
 20
179.28080728844259
 30
0.0
 40
0.094488188976
 50
212.41336607757509
 51
270.0
  0
LINE
  5
2D78
  8
虚线
 10
510.49281764265908
 20
188.4518403099527
 30
0.0
 11
510.49281764265908
 21
180.45184030998541
 31
0.0
  0
LINE
  5
2D79
  8
0
 10
510.49281764265908
 20
180.45184030998541
 30
0.0
 11
510.49281764265908
 21
179.66227167528891
 31
0.0
  0
ARC
  5
2D7A
  8
0
 10
510.5873058316327
 20
179.66227167528891
 30
0.0
 40
0.094488188976
 50
180.0
 51
269.20732315952699
  0
LINE
  5
2D7B
  8
中心线
  6
CONTINUOUS
 62
     1
 10
494.1959123343957
 20
130.11138391170499
 30
0.0
 11
494.1959123343666
 21
111.41207309513889
 31
0.0
  0
LINE
  5
2D7C
  8
中心线
  6
CONTINUOUS
 62
     1
 10
524.35358949962836
 20
130.11138391170499
 30
0.0
 11
494.1959123343957
 21
130.11138391170499
 31
0.0
  0
LINE
  5
2D7D
  8
中心线
  6
CONTINUOUS
 62
     1
 10
524.35358949962836
 20
111.41207309513889
 30
0.0
 11
524.35358949962836
 21
130.11138391170499
 31
0.0
  0
LINE
  5
2D7E
  8
中心线
  6
CONTINUOUS
 62
     1
 10
524.35358949962836
 20
111.41207309513889
 30
0.0
 11
494.1959123343666
 21
111.41207309513889
 31
0.0
  0
INSERT
  5
2E2E
  8
标注
  2
*U39
 10
56.47766416426424
 20
0.0
 30
0.0
  0
INSERT
  5
2E2F
  8
标注
  2
*U40
 10
55.682114041623258
 20
1.7489695993958201
 30
0.0
  0
DIMENSION
  5
2E30
  8
标注
  2
*D45
 10
524.35358949962836
 20
108.9954279819315
 30
0.0
 11
509.27475091699739
 21
108.9954279819315
 31
0.0
 70
     0
 13
494.1959123343666
 23
111.41207309513889
 33
0.0
 14
524.35358949962836
 24
111.41207309513889
 34
0.0
1001
ACAD
1000
DSTYLE
1002
{
1070
   287
1070
     3
1070
     3
1000
"
1070
   274
1070
     2
1070
   279
1070
     0
1070
   284
1070
     0
1070
   285
1070
     0
1070
   286
1070
     0
1002
}
  0
DIMENSION
  5
2E48
  8
标注
  2
*D46
 10
527.02249592364046
 20
130.11138391170499
 30
0.0
 11
527.02249592364046
 21
120.76172850342211
 31
0.0
 70
     0
 13
524.35358949962836
 23
111.41207309513889
 33
0.0
 14
524.35358949962836
 24
130.11138391170499
 34
0.0
 50
90.0
  0
DIMENSION
  5
2E56
  8
标注
  2
*D47
 10
524.99281764259865
 20
148.9866860484413
 30
0.0
 11
509.9927192174614
 21
148.9866860484413
 31
0.0
 70
     0
 13
494.99262079232432
 23
153.76125081012191
 33
0.0
 14
524.99281764259865
 24
153.76125081012549
 34
0.0
  0
DIMENSION
  5
2E64
  8
标注
  2
*D48
 10
526.42982547592715
 20
146.73430776299691
 30
0.0
 11
509.99271919711703
 21
146.73430776299691
 31
0.0
 70
     0
 13
493.55561291830668
 23
151.26125081013279
 33
0.0
 14
526.42982547592715
 24
151.26125080641509
 34
0.0
  0
DIMENSION
  5
2E72
  8
标注
  2
*D49
 10
527.81252756349704
 20
169.76125081006001
 30
0.0
 11
527.81252756349704
 21
161.7612508100928
 31
0.0
 70
     0
 13
524.99281764259865
 23
153.76125081012549
 33
0.0
 14
524.99281764259865
 24
169.76125081006001
 34
0.0
 50
90.0
  0
DIMENSION
  5
2E88
  8
标注
  2
*D50
 10
529.77182742837874
 20
171.2612508100527
 30
0.0
 11
529.77182742837874
 21
160.88625081009531
 31
0.0
 70
     0
 13
509.99271921743349
 23
150.51125081013771
 33
0.0
 14
526.42982551661851
 24
171.2612508100527
 34
0.0
 50
90.0
  0
DIMENSION
  5
2E96
  8
标注
  2
*D51
 10
528.15069336966951
 20
188.4518403099527
 30
0.0
 11
528.15069336966951
 21
184.4518403099691
 31
0.0
 70
     0
 13
526.42982551661851
 23
180.45184030998541
 33
0.0
 14
526.42982551661851
 24
188.4518403099527
 34
0.0
 50
90.0
  0
DIMENSION
  5
2EA4
  8
标注
  2
*D52
 10
529.83009344864115
 20
188.4518403099527
 30
0.0
 11
529.83009344864115
 21
183.92622985777521
 31
0.0
 70
     0
 13
526.48632100346765
 23
179.4006194055975
 33
0.0
 14
526.42982551661851
 24
188.4518403099527
 34
0.0
 50
90.0
  0
ENDSEC
  0
EOF
